<?xml version="1.0" standalone="no"?>
<!DOCTYPE svg PUBLIC "-//W3C//DTD SVG 1.1//EN" "http://www.w3.org/Graphics/SVG/1.1/DTD/svg11.dtd" >
<svg xmlns="http://www.w3.org/2000/svg">
<metadata>Generated by IcoMoon</metadata>
<defs>
<font id="icomoon" horiz-adv-x="1024">
<font-face units-per-em="1024" ascent="960" descent="-64" />
<missing-glyph horiz-adv-x="1024" />
<glyph unicode="&#x20;" horiz-adv-x="512" d="" />
<glyph unicode="&#xe900;" glyph-name="facebook-square" d="M1024 608.914c0 122.891 0 184.337-23.918 231.276-21.036 41.288-54.605 74.857-95.894 95.894-46.936 23.916-108.383 23.916-231.274 23.916h-321.829c-122.891 0-184.337 0-231.276-23.916-41.288-21.037-74.857-54.605-95.894-95.894-23.916-46.938-23.916-108.384-23.916-231.276v-321.829c0-122.891 0-184.338 23.916-231.274 21.037-41.289 54.605-74.858 95.894-95.894 46.938-23.918 108.384-23.918 231.276-23.918h195.865v396.555h-133.445v154.533h133.445v113.966c0 132.268 80.779 204.286 198.766 204.286 56.517 0 105.095-4.197 119.248-6.090v-138.214l-81.832-0.036c-64.165 0-76.588-30.5-76.588-75.25v-98.662h153.033l-19.931-154.533h-133.102v-396.555c91.279 0 136.92 0 173.447 13.367 60.65 22.199 108.442 69.99 130.64 130.64 13.367 36.528 13.367 82.169 13.367 173.447v355.46z" />
<glyph unicode="&#xe901;" glyph-name="telegram-square" d="M990.515 792.266c33.485-65.714 33.485-151.738 33.485-323.786v-40.96c0-172.047 0-258.074-33.485-323.784-29.45-57.805-76.447-104.801-134.252-134.252-65.71-33.485-151.736-33.485-323.784-33.485h-40.96c-172.048 0-258.072 0-323.786 33.485-57.804 29.45-104.799 76.447-134.251 134.252-33.483 65.71-33.483 151.736-33.483 323.784v40.96c0 172.048 0 258.072 33.483 323.786 29.452 57.804 76.448 104.799 134.251 134.251 65.714 33.483 151.738 33.483 323.786 33.483h40.96c172.047 0 258.074 0 323.784-33.483 57.805-29.452 104.801-76.448 134.252-134.251zM474.429 308.562l164.137-115.507c42.010-29.558 100.388-3.886 106.988 47.053l55.839 430.762c4.091 31.527-27.735 55.489-56.904 42.849l-553.931-240.037c-22.607-9.796-21.702-42.158 1.417-50.678l82.998-30.577c43.187-15.913 91.485-8.996 128.468 18.401l191.978 142.204c6.63 4.913 14.664-3.971 9.114-10.078l-139.086-152.996c-22.1-24.31-17.888-62.49 8.982-81.398z" />
<glyph unicode="&#xe902;" glyph-name="instagram-square" d="M511.997 585.979c-27.296 0.072-53.999-7.955-76.731-23.066s-40.47-36.625-50.969-61.821c-10.499-25.196-13.287-52.94-8.012-79.722 5.276-26.783 18.378-51.395 37.648-70.728s43.843-32.512 70.607-37.873c26.764-5.361 54.519-2.662 79.746 7.757 25.231 10.419 46.802 28.088 61.983 50.775 15.186 22.682 23.296 49.362 23.311 76.657-0.020 36.523-14.505 71.551-40.289 97.419-25.789 25.867-60.769 40.466-97.293 40.602v0zM1020.329 658.466c-0.696 29.783-4.721 59.395-11.996 88.283-12.754 53.832-41.887 102.385-83.384 138.972-43.494 37.666-97.531 61.032-154.767 66.926-29.138 3.49-58.435 5.492-87.772 5.998-57.928 1.317-115.569 1.317-173.203 1.317-68.096 0-136.192 0.658-204.434-2.853-25.815-0.907-51.518-3.842-76.873-8.777-55.67-10.366-106.769-37.704-146.286-78.263-40.34-43.495-66.024-98.546-73.436-157.403-4.568-32.936-6.841-66.15-6.802-99.401-0.926-54.272-1.39-108.593-1.39-162.962 0-75.481-0.878-151.185 3.877-226.67 1.749-32.292 7.548-64.241 17.262-95.084 19.246-61.942 61-114.422 117.028-147.092 42.055-23.997 89.152-37.801 137.509-40.3 33.207-2.488 66.633-4.096 99.986-4.244 108.544-0.66 217.162-2.12 325.777 1.388 34.227 0.384 68.332 4.157 101.816 11.264 55.516 11.679 105.917 40.596 144.010 82.632 38.098 42.035 61.932 95.037 68.101 151.429 4.495 32.942 6.769 66.15 6.804 99.4 1.024 54.856 1.172 109.716 1.976 188.562-1.024 46.519-2.125 116.736-3.804 186.88zM511.4 185.303c-51.957 0.046-102.734 15.493-145.912 44.39s-76.818 69.949-96.668 117.965c-19.85 48.015-25.017 100.84-14.849 151.793s35.215 97.745 71.974 134.463c36.76 36.719 83.58 61.713 134.544 71.825s103.78 4.886 151.775-15.017c47.99-19.903 89.006-53.59 117.857-96.8s44.242-94.005 44.227-145.963c0.020-34.519-6.769-68.71-19.983-100.603-13.21-31.892-32.584-60.872-57.006-85.268-24.428-24.397-53.422-43.735-85.33-56.914-31.913-13.174-66.104-19.927-100.629-19.871v0zM810.481 653.418c-17.546-0.058-34.719 5.094-49.336 14.803s-26.025 23.538-32.778 39.735c-6.753 16.198-8.545 34.035-5.151 51.253 3.389 17.218 11.817 33.040 24.212 45.465 12.39 12.424 28.196 20.891 45.404 24.327s35.052 1.687 51.267-5.025c16.21-6.712 30.070-18.085 39.813-32.68 9.748-14.594 14.94-31.752 14.925-49.301-0.169-23.373-9.539-45.74-26.071-62.261-16.538-16.521-38.912-25.869-62.285-26.022v-0.293z" />
<glyph unicode="&#xe903;" glyph-name="letter" d="M210.656 681.077c-39.99-39.99-39.99-104.353-39.99-233.077s0-193.089 39.99-233.076c39.99-39.991 104.352-39.991 233.077-39.991h136.533c128.724 0 193.089 0 233.076 39.991 39.991 39.987 39.991 104.352 39.991 233.076s0 193.087-39.991 233.077c-39.987 39.99-104.352 39.99-233.076 39.99h-136.533c-128.725 0-193.087 0-233.077-39.99zM736.468 600.921c9.049-10.861 7.581-27.003-3.28-36.055l-74.97-62.478c-30.256-25.211-54.777-45.647-76.421-59.566-22.545-14.5-44.5-23.661-69.796-23.661s-47.251 9.161-69.796 23.661c-21.644 13.92-46.165 34.355-76.418 59.566l-74.975 62.478c-10.862 9.052-12.329 25.194-3.278 36.055s25.194 12.329 36.055 3.28l73.689-61.409c31.846-26.539 53.955-44.902 72.622-56.907 18.067-11.622 30.321-15.524 42.1-15.524s24.033 3.901 42.1 15.524c18.668 12.005 40.776 30.368 72.622 56.907l73.69 61.409c10.861 9.049 27.003 7.581 36.055-3.28z" />
<glyph unicode="&#xe904;" glyph-name="letter-regular" d="M441.684 748.495h140.635c62.621 0 112.41 0.001 151.417-5.244 40.221-5.407 73.062-16.839 99.003-42.78s37.372-58.782 42.781-99.003c5.244-39.008 5.244-88.796 5.244-151.417v-4.103c0-62.621 0-112.41-5.244-151.417-5.409-40.221-16.841-73.062-42.781-99.003s-58.781-37.372-99.003-42.781c-39.007-5.244-88.795-5.244-151.417-5.244h-140.635c-62.621 0-112.411 0-151.419 5.244-40.222 5.409-73.062 16.841-99.003 42.781s-37.373 58.781-42.78 99.003c-5.244 39.007-5.244 88.795-5.243 151.417v4.103c-0.001 62.621-0.001 112.41 5.243 151.417 5.407 40.221 16.84 73.062 42.78 99.003s58.781 37.372 99.003 42.78c39.007 5.245 88.798 5.244 151.419 5.244zM297.575 688.884c-34.138-4.59-53.474-13.153-67.523-27.202s-22.612-33.384-27.202-67.524c-4.696-34.926-4.754-81.020-4.754-146.158s0.058-111.232 4.754-146.158c4.59-34.139 13.153-53.475 27.202-67.525 14.049-14.047 33.384-22.612 67.523-27.202 34.928-4.696 81.020-4.754 146.161-4.754h136.532c65.137 0 111.232 0.059 146.158 4.754 34.139 4.59 53.475 13.155 67.525 27.202 14.047 14.051 22.612 33.386 27.202 67.525 4.696 34.926 4.754 81.020 4.754 146.158s-0.059 111.232-4.754 146.158c-4.59 34.14-13.155 53.475-27.202 67.524-14.051 14.049-33.386 22.612-67.525 27.202-34.926 4.696-81.020 4.754-146.158 4.754h-136.532c-65.141 0-111.233-0.059-146.161-4.754zM737.869 602.093c9.699-11.636 8.126-28.934-3.511-38.629l-75.052-62.548c-30.186-25.154-54.784-45.652-76.522-59.633-22.704-14.603-45.005-23.951-70.784-23.951s-48.080 9.348-70.788 23.951c-21.738 13.981-46.332 34.48-76.518 59.633l-75.054 62.548c-11.637 9.695-13.21 26.993-3.512 38.629s26.993 13.21 38.63 3.512l73.691-61.407c31.879-26.569 53.888-44.848 72.437-56.777 17.909-11.516 29.817-15.232 41.114-15.232 11.293 0 23.201 3.716 41.11 15.232 18.549 11.93 40.558 30.208 72.441 56.777l73.688 61.407c11.641 9.698 28.935 8.125 38.63-3.512z" />
<glyph unicode="&#xe905;" glyph-name="money-circle" d="M512 757.333c-170.84 0-309.333-138.493-309.333-309.333 0-170.842 138.493-309.333 309.333-309.333 170.842 0 309.333 138.492 309.333 309.333 0 170.84-138.492 309.333-309.333 309.333zM138.667 448c0 206.186 167.147 373.333 373.333 373.333s373.333-167.147 373.333-373.333c0-206.187-167.147-373.333-373.333-373.333s-373.333 167.147-373.333 373.333zM512 684.8c17.673 0 32-14.327 32-32v-409.6c0-17.673-14.327-32-32-32s-32 14.327-32 32v409.6c0 17.673 14.327 32 32 32zM512 586.667c-44.591 0-70.4-29.093-70.4-53.333 0-24.239 25.809-53.333 70.4-53.333 68.514 0 134.4-47.317 134.4-117.333s-65.886-117.333-134.4-117.333c-68.518 0-134.401 47.317-134.401 117.333 0 17.673 14.327 32 32 32s32.001-14.327 32.001-32c0-24.239 25.809-53.333 70.4-53.333s70.4 29.094 70.4 53.333c0 24.239-25.809 53.333-70.4 53.333-68.518 0-134.401 47.317-134.401 117.333s65.882 117.333 134.401 117.333c68.514 0 134.4-47.317 134.4-117.333 0-17.673-14.327-32-32-32s-32 14.327-32 32c0 24.24-25.809 53.333-70.4 53.333z" />
<glyph unicode="&#xe906;" glyph-name="stars-minimalistic" d="M446.468 588.045c36.749 65.926 55.125 98.889 82.598 98.889 27.469 0 45.845-32.963 82.594-98.889l9.51-17.056c10.441-18.734 15.663-28.101 23.804-34.281 8.141-6.182 18.283-8.474 38.562-13.065l18.462-4.177c71.364-16.145 107.046-24.218 115.533-51.52 8.491-27.298-15.834-55.744-64.486-112.631l-12.587-14.72c-13.824-16.166-20.736-24.252-23.846-34.249-3.11-10.001-2.065-20.787 0.026-42.355l1.903-19.639c7.356-75.904 11.034-113.856-11.191-130.726-22.225-16.875-55.633-1.489-122.453 29.274l-17.284 7.962c-18.991 8.742-28.484 13.111-38.545 13.111-10.065 0-19.558-4.369-38.545-13.111l-17.289-7.962c-66.816-30.763-100.225-46.148-122.45-29.274-22.225 16.87-18.548 54.822-11.192 130.726l1.903 19.639c2.090 21.568 3.136 32.354 0.026 42.355-3.11 9.997-10.022 18.082-23.847 34.249l-12.587 14.72c-48.651 56.887-72.976 85.333-64.487 112.631 8.489 27.302 44.171 35.375 115.535 51.52l18.463 4.177c20.279 4.591 30.419 6.882 38.56 13.065 8.141 6.18 13.363 15.547 23.806 34.281l9.506 17.056zM268.538 772.253c1.024 3.611 7.433 3.633 8.48 0.029 4.786-16.456 13.659-40.78 27.078-54.108s37.802-22.038 54.29-26.712c3.61-1.024 3.632-7.433 0.029-8.481-16.456-4.785-40.78-13.659-54.108-27.078s-22.038-37.802-26.712-54.29c-1.024-3.611-7.433-3.633-8.481-0.029-4.785 16.456-13.659 40.78-27.078 54.109s-37.802 22.037-54.29 26.712c-3.61 1.024-3.632 7.433-0.029 8.481 16.456 4.785 40.78 13.659 54.109 27.078s22.037 37.802 26.712 54.29zM750.933 746.667c14.14 0 25.6-11.462 25.6-25.6v-8.533h8.533c14.14 0 25.6-11.462 25.6-25.6s-11.46-25.6-25.6-25.6h-8.533v-8.533c0-14.138-11.46-25.6-25.6-25.6s-25.6 11.462-25.6 25.6v8.533h-8.533c-14.14 0-25.6 11.462-25.6 25.6s11.46 25.6 25.6 25.6h8.533v8.533c0 14.138 11.46 25.6 25.6 25.6z" />
<glyph unicode="&#xe907;" glyph-name="quote-solid" d="M429.945 815.592v-123.037c-64.275 0-124.114-20.69-179.489-62.070-55.401-41.354-83.075-90.768-83.075-148.191 0-34.186 13.654-51.276 41.039-51.276 6.144 0 18.458 2.386 36.916 7.168 19.141 4.122 34.527 6.17 46.159 6.17 37.599 0 72.993-15.232 106.154-45.66 33.162-30.433 49.73-72.31 49.73-125.64 0-51.958-17.093-96.568-51.279-133.827-34.186-37.284-81.028-55.926-140.525-55.926-71.102 0-128.525 26.86-172.295 80.527s-65.641 128.394-65.641 224.097c0 131.965 40.172 235.389 120.517 310.273 80.345 74.831 177.598 113.979 291.787 117.392zM993.014 815.592v-123.037c-60.836 0-119.808-20.349-176.916-61.020-57.083-40.697-85.647-90.427-85.647-149.241 0-34.186 13.681-51.276 41.037-51.276 6.144 0 18.458 2.386 36.92 7.168 19.164 4.122 34.524 6.17 46.157 6.17 39.649 0 75.54-15.754 107.679-47.186 32.138-31.452 48.205-72.832 48.205-124.114 0-51.958-17.065-96.568-51.277-133.827-34.186-37.284-81.029-55.926-140.498-55.926-71.132 0-128.553 26.86-172.324 80.527-43.74 53.668-65.638 128.394-65.638 224.097 0 131.965 40.172 235.389 120.515 310.273 80.348 74.831 177.597 113.979 291.789 117.392z" />
<glyph unicode="&#xe908;" glyph-name="mars-regular" d="M921.16 827.867c-0.379 2.942-1.024 5.775-2.099 8.433-0.036 0.067-0.036 0.159-0.051 0.242 0 0.017-0.015 0.034-0.036 0.050-1.183 2.8-2.801 5.342-4.623 7.7-0.451 0.559-0.891 1.108-1.367 1.633-1.951 2.2-4.065 4.233-6.523 5.892-0.067 0.050-0.154 0.067-0.22 0.117-2.376 1.567-4.997 2.75-7.747 3.683-0.686 0.242-1.352 0.45-2.053 0.633-2.883 0.783-5.847 1.35-8.975 1.35h-238.93c-18.842 0-34.135-15.292-34.135-34.134s15.293-34.133 34.135-34.133h156.513l-203.725-203.725c-54.323 43.45-121.207 67.192-191.724 67.192-169.383 0-307.2-137.817-307.2-307.2 0-169.385 137.817-307.2 307.2-307.2 169.385 0 307.2 137.815 307.2 307.2 0 70.482-23.726 137.35-67.21 191.725l203.745 203.742v-156.533c0-18.842 15.288-34.134 34.13-34.134s34.135 15.292 34.135 34.134v238.933c0 0.717-0.169 1.4-0.21 2.1-0.046 0.783-0.133 1.533-0.23 2.3zM409.6 106.665c-131.759 0-238.934 107.177-238.934 238.935s107.175 238.934 238.934 238.934c63.792 0 123.848-24.834 169.006-69.834 45.092-45.25 69.929-105.31 69.929-169.1 0-131.758-107.177-238.935-238.935-238.935z" />
<glyph unicode="&#xe909;" glyph-name="map-square" d="M281.6 594.763c0 122.817 104.407 220.17 230.4 220.17 123.153 0 225.676-93.009 230.243-211.896l16.305-5.434c15.811-5.27 29.665-9.888 40.656-15.002 11.882-5.526 22.774-12.646 31.099-24.197s11.636-24.136 13.124-37.158c1.376-12.046 1.372-26.648 1.372-43.312v-196.205c0-20.801 0.003-38.547-1.611-52.784-1.7-14.974-5.495-29.693-15.783-42.247-5.905-7.209-13.076-13.285-21.159-17.927-14.077-8.083-29.218-9.407-44.268-8.619-14.309 0.748-31.816 3.666-52.333 7.086l-1.42 0.236c-44.128 7.356-61.908 10.134-79.237 8.684-6.339-0.529-12.64-1.478-18.855-2.833-16.985-3.71-33.321-11.674-73.694-31.86-1.403-0.703-2.792-1.396-4.164-2.082-47.193-23.607-76.271-38.151-107.646-42.694-9.438-1.365-18.961-2.045-28.495-2.024-31.703 0.058-62.312 10.267-111.962 26.825-1.436 0.478-2.888 0.963-4.357 1.454l-14.366 4.789c-15.807 5.267-29.662 9.885-40.654 14.998-11.883 5.526-22.773 12.646-31.099 24.197s-11.637 24.136-13.123 37.158c-1.375 12.046-1.375 26.648-1.374 43.312v171.343c-0.001 26.832-0.002 49.449 2.297 67.164 2.4 18.49 7.824 36.57 22.71 50.166 4.376 3.997 9.199 7.472 14.375 10.359 17.605 9.824 36.472 9.254 54.772 5.683 3.712-0.724 7.601-1.618 11.666-2.652-2.256 15.217-3.42 30.389-3.42 45.302zM298.622 492.056c-14.608 4.71-25.82 7.997-35.074 9.803-13.487 2.632-17.909 1.038-20.021-0.14-1.725-0.963-3.333-2.12-4.792-3.454-1.786-1.628-4.696-5.321-6.465-18.947-1.82-14.022-1.871-33.28-1.871-62.31v-168.267c0-18.401 0.039-30.051 1.043-38.847 0.93-8.141 2.45-11.168 3.789-13.025s3.729-4.256 11.159-7.714c8.026-3.734 19.067-7.455 36.523-13.274l13.092-4.362c55.417-18.473 77.785-25.61 100.224-25.651 7.049-0.014 14.087 0.485 21.064 1.495 22.2 3.215 43.537 13.544 96.249 39.898 1.068 0.536 2.123 1.062 3.168 1.584 36.205 18.108 58.505 29.263 82.5 34.502 8.41 1.836 16.93 3.12 25.508 3.837 24.474 2.048 48.882-2.024 88.48-8.629 1.137-0.188 2.284-0.379 3.444-0.573 22.333-3.721 36.949-6.117 48.009-6.697 10.646-0.556 14.305 0.864 16.097 1.891 2.693 1.546 5.086 3.574 7.052 5.977 1.311 1.597 3.311 4.973 4.512 15.565 1.249 11.005 1.287 25.815 1.287 48.456v193.423c0 18.401-0.038 30.051-1.041 38.847-0.932 8.141-2.451 11.168-3.792 13.025-1.338 1.857-3.727 4.256-11.158 7.714-8.025 3.734-19.067 7.455-36.523 13.274l-2.007 0.669c-6.492-44.421-22.292-89.265-45.582-129.29-31.147-53.524-76.718-100.147-133.809-125.051-30.3-13.22-65.075-13.22-95.375 0-57.091 24.904-102.663 71.526-133.808 125.051-13.108 22.525-23.843 46.578-31.882 71.223zM512 763.733c-100.222 0-179.2-76.871-179.2-168.97 0-48.381 14.93-101.734 41.957-148.18 27.034-46.459 65.137-84.289 110.029-103.875 17.248-7.523 37.181-7.523 54.429 0 44.892 19.586 82.995 57.416 110.029 103.875 27.027 46.445 41.957 99.799 41.957 148.18 0 92.099-78.978 168.97-179.2 168.97zM512 627.2c-23.566 0-42.667-19.101-42.667-42.667s19.101-42.667 42.667-42.667c23.566 0 42.667 19.101 42.667 42.667s-19.101 42.667-42.667 42.667zM418.133 584.533c0 51.841 42.025 93.867 93.867 93.867s93.867-42.026 93.867-93.867c0-51.842-42.025-93.867-93.867-93.867s-93.867 42.025-93.867 93.867z" />
<glyph unicode="&#xe90a;" glyph-name="location" d="M201.599 511.377c0 173.501 138.348 315.29 310.401 315.29 172.049 0 310.4-141.788 310.4-315.29 0-82.829-23.565-171.422-65.101-247.898-41.463-76.343-102.447-143.479-179.558-179.52-41.715-19.503-89.766-19.503-131.486 0-77.11 36.041-138.094 103.177-179.556 179.52-41.535 76.476-65.1 165.069-65.1 247.898zM512 752c-129.571 0-235.734-107.104-235.734-240.623 0-69.487 20.011-145.911 56.048-212.262 36.109-66.492 86.691-120 145.557-147.516 21.683-10.133 46.575-10.133 68.254 0 58.867 27.516 109.449 81.024 145.562 147.516 36.036 66.351 56.047 142.775 56.047 212.262 0 133.519-106.163 240.623-235.733 240.623zM512 581.333c-35.938 0-65.067-29.132-65.067-65.067s29.129-65.067 65.067-65.067c35.934 0 65.067 29.133 65.067 65.067s-29.133 65.067-65.067 65.067zM372.266 516.267c0 77.172 62.559 139.733 139.734 139.733 77.171 0 139.733-62.561 139.733-139.733s-62.562-139.733-139.733-139.733c-77.175 0-139.734 62.562-139.734 139.733z" />
<glyph unicode="&#xe90b;" glyph-name="gps" d="M512 689.066c-133.138 0-241.068-107.929-241.068-241.066s107.929-241.067 241.068-241.067c133.137 0 241.067 107.93 241.067 241.067s-107.93 241.066-241.067 241.066zM206.932 448c0 168.483 136.583 305.066 305.068 305.066 168.482 0 305.067-136.583 305.067-305.066s-136.585-305.067-305.067-305.067c-168.485 0-305.068 136.585-305.068 305.067zM512 518.4c-38.882 0-70.4-31.518-70.4-70.4s31.518-70.4 70.4-70.4c38.878 0 70.4 31.518 70.4 70.4s-31.522 70.4-70.4 70.4zM377.599 448c0 74.227 60.174 134.4 134.401 134.4s134.4-60.172 134.4-134.4c0-74.227-60.173-134.4-134.4-134.4s-134.401 60.173-134.401 134.4zM270.932 448c0-17.673-14.327-32-32-32h-68.267c-17.673 0-32 14.327-32 32s14.327 32 32 32h68.267c17.673 0 32-14.327 32-32zM885.333 448c0-17.673-14.327-32-32-32h-68.267c-17.673 0-32 14.327-32 32s14.327 32 32 32h68.267c17.673 0 32-14.327 32-32zM512 821.333c17.673 0 32-14.327 32-32v-68.267c0-17.673-14.327-32-32-32s-32 14.327-32 32v68.267c0 17.673 14.327 32 32 32zM512 206.933c17.673 0 32-14.327 32-32v-68.267c0-17.673-14.327-32-32-32s-32 14.327-32 32v68.267c0 17.673 14.327 32 32 32z" />
<glyph unicode="&#xe90c;" glyph-name="phone" d="M641.916 374.404l-15.543-15.458c0 0-36.954-36.745-137.818 63.548s-63.912 137.034-63.912 137.034l9.789 9.734c24.119 23.98 26.389 62.48 5.35 90.586l-43.042 57.495c-26.042 34.787-76.366 39.383-106.216 9.702l-53.576-53.271c-14.801-14.717-24.719-33.795-23.517-54.958 3.077-54.143 27.574-170.633 164.266-306.552 144.956-144.132 280.969-149.858 336.585-144.674 17.591 1.638 32.892 10.598 45.222 22.857l48.486 48.213c32.73 32.546 23.505 88.341-18.372 111.104l-65.212 35.452c-27.499 14.946-61.001 10.556-82.492-10.812z" />
<glyph unicode="&#xe90d;" glyph-name="incoming-call" d="M409.109 738.931c-34.597 48.933-103.827 57.189-145.681 13.124l-53.576-56.405c-18.29-19.256-32.192-46.007-30.518-77.193 3.388-63.12 30.188-192.311 171.267-340.842 151.188-159.172 295.405-167.177 357.66-161.033 25.502 2.517 46.135 16.119 61.269 32.051l48.491 51.046c44.54 46.899 31.569 125.376-24.166 157.457l-65.212 37.538c-37.495 21.581-83.998 15.394-113.822-16.009l-13.948-14.682c-0.99-0.35-4.092-1.186-10.018-0.222-13.739 2.231-43.392 14.362-92.275 65.826-48.73 51.302-60.732 82.901-63.010 98.449-1.101 7.501 0.017 11.453 0.457 12.695l0.073 0.198 8.358 8.799c33.028 34.771 35.366 89.185 7.693 128.325l-43.042 60.876zM300.552 716.794c17.846 18.789 49.263 17.313 66.752-7.422l43.042-60.876c14.409-20.38 12.2-47.495-3.008-63.505l-9.79-10.307 18.147-17.237c-18.148 17.236-18.171 17.212-18.195 17.187l-0.048-0.051-0.099-0.106-0.208-0.227-0.455-0.512c-0.32-0.367-0.67-0.787-1.045-1.261-0.751-0.948-1.599-2.114-2.49-3.505-1.786-2.791-3.722-6.466-5.362-11.075-3.335-9.372-5.152-21.783-2.881-37.283 4.462-30.447 24.415-71.398 76.546-126.285 51.981-54.729 91.238-76.241 121.19-81.105 15.373-2.496 27.81-0.503 37.231 3.213 4.608 1.818 8.252 3.951 10.982 5.888 1.365 0.969 2.5 1.886 3.418 2.688 0.461 0.405 0.866 0.781 1.216 1.118l0.491 0.482 0.218 0.222 0.098 0.107 0.051 0.051c0.021 0.021 0.047 0.047-17.95 17.139l17.997-17.092 15.543 16.367c13.158 13.854 33.66 16.964 51.157 6.891l65.212-37.534c28.019-16.128 33.502-55.799 12.587-77.82l-48.491-51.051c-9.523-10.027-19.486-15.403-29.171-16.358-48.981-4.834-176.785-0.708-315.511 145.344-132.305 139.29-154.498 256.787-157.264 308.322-0.732 13.63 5.203 27.279 16.515 39.188l53.576 56.405zM716.8 524.8c14.14 0 25.6 11.461 25.6 25.6s-11.46 25.6-25.6 25.6h-40.597l92.83 92.831c10.001 9.998 10.001 26.207 0 36.204-9.997 9.997-26.206 9.997-36.203 0l-92.83-92.832v40.596c0 14.138-11.46 25.6-25.6 25.6s-25.6-11.462-25.6-25.6v-102.4c0-14.139 11.46-25.6 25.6-25.6h102.4z" />
<glyph unicode="&#xe90e;" glyph-name="money-wallet" d="M816.589 456.527c-0.693 0.007-1.601 0.007-3.079 0.007h-88.832c-48.585 0-84.678-36.137-84.678-76.8s36.093-76.8 84.678-76.8h88.832c1.478 0 2.386 0 3.079 0.007 0.655 0.007 0.836 0.020 0.836 0.020 7.031 0.427 10.059 5.175 10.291 8.032 0 0 0.007 0.212 0.010 0.522 0.007 0.608 0.007 1.413 0.007 2.796v130.847c0 0.765 0 1.352 0 1.83-0.003 0.382-0.003 0.696-0.007 0.966-0.003 0.307-0.010 0.522-0.010 0.522-0.232 2.857-3.26 7.605-10.295 8.032 0 0-0.167 0.014-0.833 0.020zM814.077 507.733c2.266 0 4.451 0.003 6.458-0.119 29.74-1.812 56.044-24.245 58.255-55.579 0.147-2.055 0.143-4.27 0.143-6.321 0-0.188 0-0.372 0-0.556v-130.847c0-0.184 0-0.369 0-0.556 0-2.051 0.003-4.267-0.143-6.321-2.212-31.334-28.515-53.767-58.255-55.579-2.007-0.123-4.192-0.119-6.458-0.119-0.188 0-0.375 0-0.567 0h-88.832c-73.223 0-135.878 55.555-135.878 128s62.655 128 135.878 128h88.832c0.191 0 0.379 0 0.567 0zM814.077 507.733c2.266 0 4.451 0.003 6.458-0.119 7.694-0.468 15.159-2.318 22.036-5.345-3.652 54.835-13.708 97.092-45.257 128.644-25.545 25.544-57.938 36.88-97.956 42.261l-1.444 0.191c-0.358 0.265-0.724 0.523-1.099 0.772l-127.505 84.543c-44.483 29.494-104.271 29.494-148.753 0l-127.504-84.543c-0.376-0.25-0.743-0.507-1.101-0.772l-1.443-0.191c-40.019-5.38-72.409-16.717-97.954-42.261s-36.88-57.937-42.26-97.954c-5.228-38.885-5.228-88.569-5.227-151.299v-3.85c-0.001-62.73-0.001-112.415 5.227-151.299 5.38-40.018 16.716-72.41 42.26-97.956 25.544-25.542 57.935-36.878 97.954-42.26 38.885-5.226 88.57-5.226 151.3-5.226h106.25c62.73 0 112.415 0 151.299 5.226 40.018 5.383 72.41 16.719 97.956 42.26 31.549 31.553 41.605 73.81 45.257 128.645-6.878-3.028-14.343-4.878-22.036-5.345-2.007-0.123-4.192-0.119-6.458-0.119h-23.279c-3.884-45.79-12.674-69.96-29.689-86.975-14.445-14.445-34.232-23.105-68.57-27.72-35.079-4.717-81.319-4.772-146.405-4.772h-102.4c-65.085 0-111.326 0.055-146.403 4.772-34.341 4.615-54.127 13.274-68.572 27.72s-23.104 34.232-27.721 68.57c-4.716 35.079-4.77 81.319-4.77 146.405s0.054 111.326 4.77 146.405c4.617 34.338 13.275 54.125 27.721 68.57s34.231 23.105 68.572 27.721c35.077 4.716 81.318 4.77 146.403 4.77h102.4c65.085 0 111.326-0.054 146.405-4.77 34.338-4.616 54.125-13.276 68.57-27.721 17.015-17.015 25.805-41.185 29.689-86.975h23.279zM441.808 678.4h106.25c17.63 0 34.229 0 49.848-0.116l-56.89 37.723c-27.334 18.123-64.833 18.123-92.163 0l-56.893-37.723c15.619 0.116 32.218 0.116 49.848 0.116zM307.2 541.867c-14.138 0-25.6-11.462-25.6-25.6s11.462-25.6 25.6-25.6h136.533c14.138 0 25.6 11.462 25.6 25.6s-11.462 25.6-25.6 25.6h-136.533zM750.933 379.733c0-18.852-15.281-34.133-34.133-34.133s-34.133 15.281-34.133 34.133c0 18.852 15.281 34.133 34.133 34.133s34.133-15.281 34.133-34.133z" />
<glyph unicode="&#xe90f;" glyph-name="download" d="M528.251 716.8c-86.942 0-156.645-69.533-156.645-154.353 0-12.18 1.424-23.999 4.111-35.318 15.599-5.184 30.269-12.371 43.69-21.25 17.688-11.701 22.542-35.525 10.841-53.213-11.701-17.687-35.525-22.54-53.213-10.841-11.623 7.689-24.833 13.202-39.053 15.962-6.772 1.314-13.8 2.009-21.031 2.009-60.014 0-107.886-47.959-107.886-106.163 0-58.209 47.873-106.168 107.886-106.168 21.208 0 38.4-17.193 38.4-38.4s-17.192-38.4-38.4-38.4c-101.57 0-184.686 81.49-184.686 182.968 0 94.531 72.131 171.718 164.116 181.838-1.042 8.856-1.576 17.859-1.576 26.976 0 128.090 104.948 231.153 233.445 231.153 111.59 0 205.332-77.65 228.152-181.987 79.698-36.613 135.327-116.582 135.327-209.795 0-111.186-79.114-203.515-183.967-225.94-20.741-4.434-41.144 8.781-45.583 29.522-4.434 20.736 8.781 41.144 29.522 45.578 70.769 15.135 123.228 77.23 123.228 150.84 0 67.216-43.704 124.819-105.262 145.87-16.041 5.486-33.316 8.484-51.384 8.484-18.432 0-36.035-3.121-52.352-8.82-20.019-6.993-41.923 3.568-48.916 23.589s3.569 41.922 23.593 48.915c24.351 8.507 50.514 13.115 77.676 13.115 3.159 0 6.308-0.062 9.441-0.186-25.902 49.738-78.469 84.014-139.474 84.014zM512 349.865c21.207 0 38.4-17.193 38.4-38.4v-112.092l2.714 2.714c14.996 14.996 39.311 14.996 54.308 0s14.996-39.311 0-54.308l-68.27-68.265c-14.991-14.996-39.307-14.996-54.303 0l-68.266 68.265c-14.996 14.996-14.996 39.311 0 54.308s39.309 14.996 54.306 0l2.714-2.714v112.092c0 21.207 17.192 38.4 38.399 38.4z" />
<glyph unicode="&#xe910;" glyph-name="history" d="M728.132 664.126v0zM293.69 666.309v0zM295.873 231.868v0zM250.464 623.084l-32-0.161c0.088-17.548 14.291-31.751 31.839-31.839l0.161 32zM337.192 590.647c17.673-0.089 32.072 14.166 32.16 31.839s-14.166 32.072-31.839 32.16l-0.322-63.999zM282.027 710.132c-0.089 17.673-14.487 31.927-32.16 31.839s-31.927-14.487-31.839-32.16l63.999 0.322zM239.357 488.602c2.4 17.51-9.848 33.651-27.358 36.049-17.509 2.402-33.649-9.847-36.049-27.358l63.407-8.691zM750.758 686.753c-132.851 132.852-347.62 134.259-479.696 2.183l45.255-45.255c106.654 106.654 280.896 106.106 389.184-2.183l45.257 45.255zM273.246 209.242c132.852-132.851 347.622-134.259 479.697-2.185l-45.257 45.257c-106.654-106.654-280.896-106.108-389.186 2.18l-45.255-45.252zM752.943 207.057c132.075 132.075 130.667 346.844-2.185 479.696l-45.257-45.255c108.292-108.289 108.838-282.531 2.185-389.185l45.257-45.257zM271.063 688.937l-43.226-43.226 45.255-45.255 43.226 43.226-45.255 45.255zM250.304 591.084l86.888-0.436 0.322 63.999-86.888 0.437-0.322-64zM282.464 623.244l-0.437 86.889-63.999-0.322 0.437-86.888 63.999 0.321zM175.951 497.293c-13.964-101.879 18.558-209.314 97.295-288.051l45.255 45.252c-64.091 64.094-90.485 151.36-79.143 234.108l-63.407 8.691z" />
<glyph unicode="&#xe911;" glyph-name="basket-solid" d="M512 763.733c-42.414 0-76.8-34.385-76.8-76.8v-8.871c19.016 0.338 39.878 0.338 62.775 0.337h28.051c22.897 0 43.759 0 62.775-0.337v8.871c0 42.415-34.386 76.8-76.8 76.8zM640 675.74c4.871-0.419 9.578-0.905 14.128-1.467 34.475-4.259 62.894-13.207 87.037-33.243s38.175-46.321 48.715-79.42c10.213-32.075 17.944-73.312 27.665-125.15l0.703-3.765c13.715-73.141 24.525-130.782 26.508-176.224 2.031-46.578-4.898-85.156-31.171-116.815-26.276-31.659-62.915-45.582-109.070-52.166-45.032-6.424-103.677-6.424-178.091-6.424h-28.849c-74.417 0-133.062 0-178.090 6.424-46.155 6.584-82.794 20.507-109.069 52.166s-33.205 70.236-31.171 116.815c1.983 45.442 12.791 103.083 26.506 176.224l0.706 3.765c9.719 51.838 17.45 93.075 27.664 125.15 10.54 33.099 24.572 59.384 48.714 79.42s52.563 28.984 87.037 33.243c4.547 0.562 9.257 1.048 14.128 1.467v11.193c0 70.693 57.306 128 128 128s128-57.307 128-128v-11.193zM376.149 623.459c-29.201-3.608-46.84-10.394-60.616-21.829s-23.697-27.518-32.625-55.555c-9.143-28.713-16.337-66.83-26.444-120.736-14.19-75.68-24.262-129.734-26.068-171.1-1.775-40.663 4.747-64.205 19.419-81.886 14.672-17.678 36.611-28.426 76.902-34.174 40.991-5.85 95.976-5.912 172.974-5.912h24.617c76.998 0 131.983 0.061 172.974 5.912 40.291 5.748 62.228 16.497 76.902 34.174 14.671 17.681 21.193 41.223 19.418 81.886-1.806 41.366-11.878 95.42-26.068 171.1-10.107 53.907-17.302 92.023-26.443 120.736-8.929 28.037-18.848 44.121-32.625 55.555s-31.416 18.221-60.617 21.829c-29.908 3.695-68.697 3.741-123.542 3.741h-24.617c-54.845 0-93.638-0.045-123.542-3.741z" />
<glyph unicode="&#xe912;" glyph-name="basket" d="M343.466 448c0 17.671 14.327 32 32.001 32h273.064c17.675 0 32-14.329 32-32s-14.325-32-32-32h-273.064c-17.675 0-32.001 14.329-32.001 32zM411.732 345.6c0 17.675 14.329 32 32 32h136.536c17.671 0 32-14.325 32-32 0-17.671-14.329-32-32-32h-136.536c-17.671 0-32 14.329-32 32zM380.979 769.51c7.903 15.807 27.125 22.214 42.931 14.311s22.213-27.125 14.31-42.933l-45.122-90.248c9.136 0.026 18.586 0.026 28.357 0.026h181.087c9.772 0 19.222 0 28.357-0.026l-45.122 90.248c-7.903 15.807-1.496 35.029 14.31 42.933s35.028 1.497 42.931-14.311l60.229-120.46c13.319-0.751 25.589-1.851 36.809-3.462 36.769-5.279 68.473-16.807 91.125-44.828s27.282-61.434 24.741-98.496c-2.447-35.657-12.039-80.421-23.848-135.526l-15.579-72.697c-7.954-37.131-14.53-67.818-22.846-91.908-8.744-25.333-20.52-46.892-41.004-63.451-20.487-16.563-44.036-23.559-70.638-26.803-25.296-3.083-56.678-3.079-94.651-3.079h-150.715c-37.976 0-69.358-0.004-94.653 3.079-26.604 3.244-50.152 10.24-70.638 26.803-20.486 16.56-32.262 38.118-41.007 63.451-8.314 24.090-14.889 54.777-22.845 91.908l-15.578 72.697c-11.809 55.106-21.403 99.869-23.849 135.526-2.542 37.061 2.087 70.473 24.739 98.496 22.653 28.021 54.356 39.549 91.124 44.828 11.222 1.611 23.489 2.711 36.809 3.462l60.231 120.46zM286.854 581.263c-25.115-4.356-36.772-11.465-44.268-20.736-8.086-10.002-12.695-24.21-10.661-53.881 2.094-30.533 10.641-70.791 23.112-128.987l14.628-68.264c8.478-39.567 14.287-66.406 21.179-86.378 6.607-19.141 13.068-28.357 20.744-34.564s18.043-10.591 38.144-13.041c20.973-2.556 48.434-2.611 88.897-2.611h146.739c40.463 0 67.924 0.055 88.898 2.611 20.1 2.45 30.468 6.835 38.144 13.041s14.135 15.422 20.743 34.564c6.894 19.972 12.701 46.811 21.179 86.378l14.629 68.264c12.471 58.196 21.018 98.454 23.113 128.987 2.033 29.67-2.575 43.878-10.661 53.881-7.497 9.271-19.152 16.38-44.27 20.736l8.276-16.552c7.903-15.806 1.496-35.028-14.31-42.931-15.806-7.907-35.028-1.499-42.931 14.31l-25.136 50.271c-18.403 0.293-39.256 0.307-63.045 0.307h-175.996c-23.79 0-44.643-0.015-63.044-0.307l-25.136-50.271c-7.904-15.81-27.125-22.217-42.933-14.31-15.807 7.903-22.215 27.125-14.311 42.931l8.276 16.552z" />
<glyph unicode="&#xe913;" glyph-name="basket-regular" d="M421.456 650.667h181.087c56.354 0.001 102.135 0.002 137.515-5.078 36.77-5.279 68.471-16.806 91.127-44.828 22.652-28.021 27.281-61.436 24.738-98.493-2.445-35.661-12.041-80.422-23.851-135.531l-15.578-72.695c-7.953-37.133-14.528-67.819-22.844-91.904-8.742-25.335-20.518-46.895-41.007-63.454-20.484-16.563-44.032-23.561-70.639-26.803-25.293-3.081-56.674-3.081-94.647-3.081h-150.716c-37.974 0-69.356 0-94.65 3.081-26.605 3.243-50.152 10.24-70.638 26.803-20.486 16.559-32.262 38.118-41.007 63.454-8.314 24.085-14.889 54.771-22.845 91.904l-15.578 72.695c-11.81 55.108-21.403 99.87-23.849 135.531-2.542 37.057 2.087 70.472 24.74 98.493s54.356 39.549 91.124 44.828c35.38 5.080 81.161 5.079 137.517 5.078zM293.036 582.239c-29.437-4.227-42.364-11.711-50.449-21.713s-12.695-24.21-10.66-53.88c2.094-30.532 10.641-70.788 23.111-128.986l14.628-68.267c8.478-39.565 14.287-66.406 21.179-86.374 6.607-19.145 13.068-28.361 20.745-34.564 7.677-6.208 18.043-10.594 38.144-13.043 20.971-2.556 48.433-2.611 88.897-2.611h146.739c40.461 0 67.925 0.055 88.896 2.611 20.1 2.449 30.468 6.835 38.144 13.043 7.676 6.204 14.135 15.42 20.745 34.564 6.895 19.968 12.702 46.81 21.18 86.374l14.626 68.267c12.471 58.197 21.018 98.453 23.113 128.986 2.035 29.67-2.573 43.878-10.658 53.88s-21.013 17.487-50.449 21.713c-30.298 4.349-71.45 4.428-130.97 4.428h-175.994c-59.517 0-100.671-0.079-130.966-4.428zM172.8 482.133c0 17.673 14.327 32 32 32h614.4c17.673 0 32-14.327 32-32s-14.327-32-32-32h-614.4c-17.673 0-32 14.327-32 32zM411.734 379.733c0 17.673 14.327 32 31.999 32h136.533c17.673 0 32-14.327 32-32s-14.327-32-32-32h-136.533c-17.672 0-31.999 14.327-31.999 32zM600.090 783.822c15.808 7.904 35.029 1.496 42.931-14.311l102.4-204.8c7.906-15.807 1.498-35.030-14.31-42.932-15.808-7.906-35.029-1.498-42.931 14.31l-102.4 204.8c-7.906 15.807-1.498 35.029 14.31 42.932zM423.91 783.822c-15.807 7.904-35.028 1.496-42.932-14.311l-102.4-204.8c-7.904-15.807-1.496-35.030 14.311-42.932 15.808-7.906 35.029-1.498 42.932 14.31l102.4 204.8c7.906 15.807 1.498 35.029-14.31 42.932z" />
<glyph unicode="&#xe914;" glyph-name="settings-regular" d="M512 512c-35.346 0-64-28.654-64-64 0-35.348 28.654-64 64-64 35.348 0 64 28.652 64 64 0 35.346-28.652 64-64 64zM371.2 448c0 77.762 63.038 140.8 140.8 140.8 77.763 0 140.8-63.038 140.8-140.8 0-77.763-63.037-140.8-140.8-140.8s-140.8 63.037-140.8 140.8zM510.803 827.733h2.395c14.879 0.001 27.93 0.001 38.769-0.739 11.474-0.783 23.255-2.522 34.985-7.381 26.138-10.826 46.904-31.591 57.728-57.727 5.857-14.142 7.255-28.63 7.782-42.727 0.261-7.023 3.727-12.013 7.798-14.363s10.127-2.856 16.343 0.427c12.472 6.592 25.713 12.627 40.893 14.625 28.047 3.693 56.412-3.908 78.853-21.13 10.076-7.73 17.469-17.062 23.885-26.609 6.062-9.018 12.585-20.319 20.029-33.206l1.193-2.073c7.444-12.887 13.967-24.187 18.744-33.945 5.064-10.329 9.446-21.4 11.105-33.99 3.692-28.047-3.912-56.413-21.13-78.857-9.318-12.145-21.171-20.598-33.116-28.104-5.949-3.738-8.54-9.234-8.54-13.933 0-4.701 2.591-10.194 8.54-13.937 11.945-7.501 23.793-15.954 33.111-28.099 17.224-22.446 24.822-50.811 21.13-78.858-1.659-12.59-6.042-23.66-11.1-33.992-4.782-9.759-11.305-21.059-18.744-33.946l-1.198-2.074c-7.439-12.887-13.962-24.187-20.024-33.203-6.415-9.549-13.814-18.877-23.885-26.609-22.446-17.224-50.811-24.822-78.858-21.13-15.176 1.997-28.421 8.033-40.893 14.623-6.211 3.287-12.268 2.78-16.338 0.43s-7.537-7.342-7.798-14.362c-0.527-14.1-1.92-28.59-7.782-42.732-10.824-26.138-31.59-46.899-57.728-57.728-11.73-4.859-23.511-6.6-34.985-7.383-10.839-0.737-23.89-0.737-38.769-0.737h-2.395c-14.88 0-27.928 0-38.769 0.737-11.475 0.783-23.255 2.524-34.986 7.383-26.136 10.829-46.901 31.59-57.727 57.728-5.858 14.141-7.254 28.631-7.781 42.726-0.263 7.025-3.729 12.012-7.799 14.362s-10.125 2.857-16.338-0.425c-12.472-6.589-25.717-12.626-40.893-14.623-28.048-3.697-56.414 3.907-78.858 21.13-10.074 7.726-17.469 17.060-23.885 26.609-6.061 9.016-12.584 20.316-20.024 33.203l-1.198 2.074c-7.44 12.887-13.965 24.187-18.744 33.946-5.060 10.327-9.444 21.402-11.101 33.987-3.693 28.052 3.908 56.417 21.13 78.858 9.319 12.145 21.168 20.598 33.113 28.104 5.95 3.738 8.54 9.236 8.54 13.937s-2.589 10.2-8.541 13.939c-11.944 7.505-23.792 15.958-33.109 28.101-17.222 22.444-24.823 50.809-21.13 78.857 1.657 12.59 6.041 23.66 11.101 33.99 4.78 9.758 11.303 21.058 18.744 33.944l1.198 2.075c7.44 12.888 13.963 24.187 20.024 33.206 6.416 9.546 13.811 18.878 23.885 26.609 22.444 17.222 50.809 24.822 78.857 21.13 15.177-1.998 28.423-8.034 40.896-14.626 6.212-3.283 12.265-2.776 16.334-0.426s7.535 7.338 7.798 14.36c0.527 14.098 1.923 28.586 7.781 42.729 10.826 26.136 31.591 46.902 57.727 57.727 11.731 4.859 23.511 6.598 34.986 7.381 10.841 0.74 23.888 0.739 38.769 0.739zM477.262 750.372c-7.565-0.516-10.011-1.376-10.824-1.713-7.319-3.031-13.133-8.845-16.164-16.164-0.467-1.129-1.547-4.401-1.989-16.209-1.161-31.051-17.22-61.302-46.144-78.001s-63.152-15.481-90.622-0.961c-10.447 5.522-13.82 6.223-15.032 6.382-7.853 1.034-15.796-1.094-22.080-5.916-0.699-0.536-2.666-2.224-6.896-8.518-4.422-6.58-9.64-15.576-17.854-29.804s-13.396-23.245-16.884-30.365c-3.335-6.81-3.813-9.357-3.929-10.231-1.034-7.853 1.094-15.796 5.917-22.080 0.743-0.969 3.037-3.539 13.039-9.825 26.312-16.532 44.483-45.569 44.481-78.973-0.002-33.398-18.171-62.428-44.481-78.961-10.006-6.287-12.299-8.858-13.043-9.825-4.822-6.287-6.95-14.228-5.916-22.083 0.115-0.87 0.593-3.42 3.929-10.23 3.488-7.117 8.669-16.133 16.884-30.362s13.432-23.224 17.855-29.809c4.229-6.292 6.197-7.977 6.896-8.515 6.284-4.823 14.226-6.953 22.079-5.919 1.212 0.159 4.585 0.86 15.031 6.385 27.472 14.52 61.701 15.739 90.626-0.963s44.984-46.95 46.146-78.003c0.441-11.807 1.521-15.078 1.989-16.21 3.031-7.316 8.845-13.133 16.164-16.164 0.814-0.338 3.259-1.193 10.824-1.71 7.91-0.543 18.309-0.563 34.738-0.563s26.829 0.020 34.739 0.563c7.567 0.517 10.010 1.372 10.824 1.71 7.316 3.031 13.133 8.847 16.164 16.164 0.466 1.132 1.546 4.403 1.992 16.21 1.157 31.053 17.213 61.302 46.136 78.003 28.928 16.701 63.155 15.483 90.629 0.963 10.445-5.519 13.819-6.221 15.032-6.38 7.854-1.034 15.795 1.091 22.077 5.914 0.701 0.538 2.668 2.227 6.897 8.52 4.424 6.579 9.641 15.575 17.853 29.804 8.218 14.228 13.399 23.245 16.886 30.367 3.333 6.81 3.814 9.354 3.927 10.23 1.034 7.854-1.091 15.795-5.914 22.077-0.748 0.973-3.036 3.543-13.041 9.825-26.312 16.532-44.483 45.568-44.483 78.97 0.005 33.398 18.171 62.429 44.483 78.959 10.004 6.287 12.298 8.858 13.041 9.827 4.823 6.284 6.953 14.227 5.919 22.081-0.118 0.873-0.594 3.421-3.927 10.23-3.492 7.12-8.673 16.136-16.886 30.365s-13.435 23.224-17.853 29.805c-4.229 6.294-6.2 7.981-6.897 8.518-6.282 4.822-14.228 6.95-22.083 5.916-1.208-0.16-4.582-0.86-15.027-6.382-27.474-14.52-61.701-15.738-90.629 0.962-28.923 16.7-44.984 46.952-46.141 78.003-0.445 11.807-1.526 15.079-1.992 16.207-3.031 7.319-8.847 13.133-16.164 16.164-0.814 0.337-3.256 1.197-10.824 1.713-7.91 0.54-18.309 0.561-34.739 0.561-16.429 0-26.828-0.021-34.738-0.561z" />
<glyph unicode="&#xe915;" glyph-name="search-regular" d="M494.932 750.934c-157.88 0-285.867-127.987-285.867-285.866 0-157.882 127.987-285.867 285.867-285.867 157.878 0 285.868 127.985 285.868 285.867 0 157.88-127.99 285.866-285.868 285.866zM132.265 465.067c0 200.295 162.372 362.666 362.667 362.666 200.297 0 362.668-162.371 362.668-362.666 0-200.296-162.371-362.667-362.668-362.667-200.295 0-362.667 162.371-362.667 362.667zM706.714 253.286c14.996 14.996 39.306 14.996 54.303 0l119.47-119.465c14.996-14.996 14.996-39.311 0-54.308s-39.311-14.996-54.308 0l-119.465 119.465c-14.996 14.996-14.996 39.311 0 54.308z" />
<glyph unicode="&#xe916;" glyph-name="phone-calling" d="M263.428 752.056c41.854 44.064 111.082 35.809 145.68-13.124l43.042-60.876c27.672-39.139 25.337-93.552-7.69-128.324l-8.359-8.8c-0.020-0.061-0.048-0.126-0.072-0.198-0.44-1.242-1.56-5.192-0.461-12.694 2.28-15.548 14.281-47.145 63.014-98.451 48.882-51.466 78.534-63.594 92.276-65.826 5.926-0.963 9.028-0.126 10.015 0.222l13.947 14.684c29.826 31.399 76.329 37.588 113.821 16.005l65.212-37.536c55.74-32.079 68.71-110.558 24.166-157.454l-48.486-51.050c-15.135-15.933-35.768-29.532-61.269-32.051-62.252-6.144-206.473 1.86-357.663 161.034-141.077 148.531-167.878 277.722-171.266 340.842v0c-1.674 31.186 12.228 57.936 30.518 77.192l53.576 56.405zM367.302 709.373c-17.487 24.735-48.904 26.211-66.75 7.422l-53.576-56.405c-11.311-11.909-17.246-25.559-16.515-39.188 2.766-51.533 24.959-169.031 157.263-308.325 138.725-146.050 266.53-150.176 315.511-145.34 9.684 0.956 19.651 6.328 29.174 16.357l48.49 51.050c20.917 22.019 15.432 61.693-12.585 77.821l-65.212 37.536c-17.5 10.073-38.001 6.96-51.159-6.892l-15.544-16.367-17.995 17.091c17.995-17.091 17.971-17.114 17.947-17.142l-0.048-0.051-0.102-0.102-0.215-0.222-0.492-0.481c-0.352-0.341-0.758-0.717-1.215-1.116-0.918-0.806-2.051-1.724-3.417-2.69-2.734-1.942-6.376-4.072-10.981-5.891-9.421-3.714-21.862-5.707-37.233-3.212-29.952 4.864-69.209 26.378-121.19 81.104-52.132 54.886-72.086 95.836-76.547 126.287-2.27 15.5-0.454 27.911 2.881 37.284 1.642 4.608 3.577 8.284 5.362 11.073 0.891 1.393 1.741 2.557 2.488 3.505 0.375 0.474 0.727 0.894 1.048 1.263l0.454 0.509 0.208 0.229 0.147 0.157c0.024 0.024 0.048 0.048 18.193-17.186l-18.145 17.237 9.789 10.305c15.206 16.012 17.418 43.126 3.007 63.506l-43.042 60.876zM554.991 793.427c2.26 13.957 15.452 23.425 29.409 21.165 0.864-0.165 3.645-0.685 5.1-1.009 2.915-0.649 6.977-1.647 12.042-3.123 10.131-2.951 24.282-7.811 41.267-15.599 34.007-15.59 79.261-42.863 126.222-89.824s74.233-92.214 89.822-126.221c7.789-16.985 12.65-31.136 15.599-41.267 1.475-5.065 2.475-9.127 3.123-12.042 0.324-1.454 0.563-2.625 0.727-3.488l0.198-1.065c2.256-13.957-7.124-27.696-21.081-29.955-13.916-2.253-27.027 7.168-29.341 21.060-0.072 0.372-0.27 1.376-0.478 2.321-0.423 1.891-1.15 4.888-2.304 8.851-2.311 7.933-6.321 19.719-12.984 34.249-13.305 29.024-37.233 69.102-79.486 111.354-42.25 42.253-82.33 66.18-111.353 79.486-14.531 6.661-26.317 10.673-34.249 12.983-3.963 1.155-8.946 2.299-10.837 2.72-13.892 2.315-23.648 15.488-21.395 29.405zM562.726 675.685c3.884 13.594 18.053 21.466 31.648 17.582l-7.035-24.615c7.035 24.615 7.045 24.611 7.059 24.608l0.075-0.023 0.116-0.033 0.263-0.079 0.676-0.211c0.515-0.165 1.157-0.379 1.925-0.651 1.533-0.544 3.557-1.318 6.042-2.383 4.973-2.131 11.769-5.422 20.115-10.362 16.708-9.888 39.516-26.312 66.307-53.106 26.795-26.794 43.22-49.602 53.108-66.31 4.939-8.346 8.23-15.138 10.359-20.111 1.065-2.485 1.84-4.512 2.383-6.045 0.273-0.765 0.488-1.41 0.652-1.922l0.212-0.676 0.079-0.266 0.034-0.113 0.014-0.055 0.007-0.024c0.003-0.010 0.007-0.024-24.607-7.055l24.614 7.031c3.884-13.595-3.987-27.764-17.582-31.648-13.479-3.85-27.522 3.857-31.546 17.237l-0.126 0.369c-0.181 0.512-0.56 1.522-1.191 2.997-1.263 2.946-3.553 7.769-7.363 14.206-7.612 12.858-21.357 32.29-45.247 56.18-23.893 23.893-43.322 37.638-56.183 45.249-6.438 3.81-11.257 6.1-14.203 7.363-1.475 0.632-2.485 1.009-2.997 1.191l-0.369 0.126c-13.384 4.024-21.088 18.067-17.237 31.547z" />
<glyph unicode="&#xe917;" glyph-name="sale" d="M463.995 778.451c30.358 14.51 65.652 14.51 96.010 0 13.189-6.304 25.272-16.612 42.008-30.885 0.867-0.741 1.751-1.493 2.645-2.255 8.124-6.925 10.684-9.055 13.274-10.79 6.588-4.415 13.984-7.479 21.763-9.015 3.058-0.604 6.373-0.908 17.015-1.757 1.171-0.094 2.328-0.185 3.465-0.275 21.924-1.74 37.758-2.996 51.541-7.865 31.73-11.206 56.685-36.162 67.891-67.889 4.867-13.784 6.124-29.619 7.864-51.543 0.092-1.137 0.181-2.294 0.276-3.465 0.85-10.643 1.154-13.957 1.758-17.015 1.533-7.779 4.598-15.179 9.011-21.763 1.737-2.591 3.867-5.151 10.793-13.274 0.761-0.898 1.512-1.778 2.253-2.645 14.275-16.736 24.583-28.819 30.887-42.008 14.51-30.358 14.51-65.652 0-96.010-6.304-13.189-16.613-25.272-30.887-42.008-0.741-0.867-1.492-1.748-2.253-2.645-6.926-8.124-9.056-10.684-10.793-13.274-4.413-6.588-7.479-13.984-9.011-21.763-0.604-3.058-0.908-6.373-1.758-17.015-0.096-1.171-0.184-2.328-0.276-3.465-1.741-21.924-2.997-37.758-7.864-51.541-11.206-31.73-36.161-56.685-67.891-67.891-13.783-4.867-29.617-6.124-51.541-7.864-1.137-0.092-2.294-0.181-3.465-0.276-10.643-0.85-13.957-1.154-17.015-1.758-7.779-1.533-15.176-4.598-21.763-9.011-2.591-1.737-5.151-3.867-13.274-10.793-0.898-0.761-1.778-1.512-2.645-2.253-16.736-14.275-28.819-24.583-42.008-30.887-30.358-14.51-65.652-14.51-96.010 0-13.189 6.304-25.272 16.613-42.008 30.887-0.867 0.741-1.751 1.492-2.645 2.253-8.124 6.926-10.684 9.056-13.274 10.793-6.584 4.413-13.984 7.479-21.763 9.011-3.058 0.604-6.373 0.908-17.015 1.758-1.171 0.096-2.328 0.184-3.465 0.276-21.924 1.741-37.759 2.997-51.543 7.864-31.727 11.206-56.683 36.161-67.889 67.891-4.869 13.783-6.125 29.617-7.865 51.541-0.090 1.137-0.182 2.294-0.275 3.465-0.85 10.643-1.153 13.957-1.757 17.015-1.536 7.779-4.6 15.176-9.015 21.763-1.736 2.591-3.865 5.151-10.79 13.274-0.762 0.894-1.514 1.778-2.255 2.645-14.274 16.732-24.582 28.819-30.886 42.008-14.51 30.358-14.51 65.652 0 96.010 6.304 13.189 16.612 25.272 30.885 42.008 0.741 0.867 1.492 1.748 2.255 2.645 6.925 8.124 9.055 10.684 10.79 13.274 4.415 6.584 7.479 13.984 9.015 21.763 0.604 3.058 0.908 6.373 1.757 17.015 0.094 1.171 0.185 2.328 0.275 3.465 1.74 21.924 2.996 37.759 7.865 51.543 11.206 31.727 36.162 56.683 67.889 67.889 13.784 4.869 29.619 6.125 51.543 7.865 1.137 0.090 2.294 0.182 3.465 0.275 10.643 0.85 13.957 1.153 17.015 1.757 7.779 1.536 15.179 4.6 21.763 9.015 2.591 1.736 5.151 3.865 13.274 10.79 0.898 0.763 1.778 1.514 2.645 2.255 16.736 14.273 28.819 24.581 42.008 30.885zM537.849 732.095c-16.346 7.813-35.352 7.813-51.698 0-6.318-3.020-12.981-8.418-33.481-25.889-0.338-0.287-0.669-0.57-0.997-0.85-6.731-5.736-11.639-9.923-16.998-13.515-12.233-8.198-25.972-13.889-40.417-16.741-6.328-1.25-12.762-1.762-21.576-2.463-0.43-0.034-0.867-0.069-1.307-0.104-26.849-2.143-35.377-3.037-41.982-5.37-17.084-6.034-30.522-19.472-36.556-36.556-2.333-6.605-3.227-15.133-5.37-41.982-0.035-0.44-0.070-0.877-0.104-1.307-0.702-8.813-1.214-15.247-2.463-21.576-2.852-14.445-8.543-28.184-16.741-40.417-3.592-5.359-7.779-10.267-13.515-16.998-0.279-0.328-0.563-0.659-0.849-0.997-17.471-20.5-22.869-27.163-25.889-33.481-7.813-16.346-7.813-35.352 0-51.698 3.020-6.318 8.418-12.981 25.889-33.481 0.287-0.338 0.57-0.669 0.85-0.997 5.736-6.731 9.923-11.639 13.515-16.998 8.198-12.233 13.889-25.972 16.741-40.417 1.25-6.328 1.762-12.762 2.463-21.576 0.034-0.43 0.069-0.867 0.104-1.307 2.143-26.849 3.037-35.376 5.37-41.981 6.034-17.084 19.472-30.522 36.556-36.557 6.605-2.335 15.133-3.229 41.982-5.369l1.307-0.106c8.813-0.7 15.247-1.212 21.576-2.461 14.445-2.854 28.184-8.544 40.417-16.742 5.359-3.591 10.267-7.779 16.998-13.513l0.997-0.85c20.5-17.473 27.163-22.869 33.481-25.89 16.346-7.813 35.352-7.813 51.698 0 6.318 3.021 12.981 8.417 33.481 25.89l1 0.85c6.728 5.734 11.636 9.923 16.995 13.513 12.233 8.199 25.972 13.889 40.417 16.742 6.328 1.249 12.762 1.761 21.576 2.461l1.307 0.106c26.849 2.14 35.376 3.034 41.981 5.369 17.084 6.035 30.522 19.473 36.557 36.557 2.335 6.605 3.229 15.131 5.369 41.981l0.106 1.307c0.7 8.813 1.212 15.247 2.461 21.576 2.854 14.445 8.544 28.184 16.742 40.417 3.591 5.359 7.779 10.267 13.513 16.995l0.85 1c17.473 20.5 22.869 27.163 25.89 33.481 7.813 16.346 7.813 35.352 0 51.698-3.021 6.318-8.417 12.981-25.89 33.481l-0.85 1c-5.734 6.728-9.923 11.636-13.513 16.995-8.199 12.233-13.889 25.972-16.742 40.417-1.249 6.328-1.761 12.762-2.461 21.576l-0.106 1.307c-2.14 26.849-3.034 35.377-5.369 41.982-6.035 17.084-19.473 30.522-36.557 36.556-6.605 2.333-15.131 3.227-41.981 5.37-0.44 0.035-0.877 0.070-1.307 0.104-8.813 0.702-15.247 1.214-21.576 2.463-14.445 2.852-28.184 8.543-40.417 16.741-5.359 3.592-10.267 7.779-16.998 13.515-0.328 0.279-0.659 0.563-0.997 0.849-20.5 17.471-27.163 22.869-33.481 25.889zM632.921 568.921c10.032-10.032 10.032-26.296 0-36.328l-205.513-205.513c-10.032-10.032-26.296-10.032-36.328 0s-10.032 26.296 0 36.328l205.513 205.513c10.032 10.032 26.296 10.032 36.328 0zM631.883 362.37c0-18.917-15.336-34.253-34.253-34.253s-34.253 15.336-34.253 34.253c0 18.917 15.336 34.253 34.253 34.253s34.253-15.336 34.253-34.253zM460.623 533.63c0-18.917-15.336-34.253-34.253-34.253s-34.253 15.336-34.253 34.253c0 18.917 15.336 34.253 34.253 34.253s34.253-15.336 34.253-34.253z" />
<glyph unicode="&#xe918;" glyph-name="card" d="M440.961 759.467h142.074c62.008 0.002 112.42 0.002 152.161-5.341 41.436-5.571 76.979-17.577 105.298-45.896s40.325-63.861 45.896-105.299c5.345-39.742 5.345-90.153 5.34-152.158v-5.543c0.005-62.008 0.005-112.42-5.34-152.161-5.571-41.436-17.577-76.979-45.896-105.298s-63.862-40.325-105.298-45.896c-39.741-5.345-90.153-5.34-152.161-5.34h-142.074c-62.006 0-112.417-0.005-152.16 5.34-41.438 5.571-76.98 17.577-105.299 45.896s-40.324 63.862-45.896 105.298c-5.343 39.741-5.342 90.153-5.341 152.161v5.542c-0.001 62.006-0.002 112.416 5.341 152.159 5.572 41.438 17.577 76.98 45.896 105.299s63.861 40.325 105.299 45.896c39.743 5.343 90.154 5.343 152.16 5.341zM299.035 678.011c-32.922-4.426-49.556-12.415-61.227-24.087s-19.66-28.304-24.086-61.226c-4.575-34.026-4.657-79.249-4.657-144.697s0.082-110.669 4.657-144.697c4.426-32.922 12.415-49.556 24.086-61.225 11.671-11.674 28.305-19.661 61.226-24.090 34.026-4.572 79.25-4.654 144.698-4.654h136.532c65.449 0 110.674 0.082 144.696 4.654 32.922 4.429 49.556 12.416 61.23 24.090 11.668 11.668 19.661 28.303 24.084 61.225 4.577 34.028 4.654 79.247 4.654 144.697 0 65.448-0.077 110.671-4.654 144.697-4.424 32.922-12.416 49.556-24.084 61.226-11.674 11.671-28.308 19.66-61.23 24.087-34.022 4.575-79.247 4.656-144.696 4.656h-136.532c-65.448 0-110.671-0.081-144.697-4.656zM268.8 311.465c0 21.212 17.192 38.4 38.4 38.4h136.534c21.208 0 38.4-17.188 38.4-38.4 0-21.207-17.192-38.4-38.4-38.4h-136.534c-21.208 0-38.4 17.193-38.4 38.4zM490.665 311.465c0 21.212 17.192 38.4 38.399 38.4h51.2c21.207 0 38.4-17.188 38.4-38.4 0-21.207-17.193-38.4-38.4-38.4h-51.2c-21.207 0-38.399 17.193-38.399 38.4zM132.265 516.267c0 21.208 17.192 38.4 38.4 38.4h682.664c21.212 0 38.4-17.192 38.4-38.4s-17.188-38.4-38.4-38.4h-682.664c-21.208 0-38.4 17.192-38.4 38.4z" />
<glyph unicode="&#xe919;" glyph-name="unread" d="M742.052 630.527c15.974-13.947 17.623-38.205 3.676-54.181l-268.193-307.197c-7.292-8.356-17.839-13.148-28.927-13.148s-21.635 4.792-28.927 13.148l-107.276 122.88c-13.947 15.974-12.303 40.233 3.673 54.18s40.234 12.302 54.181-3.676l78.349-89.743 239.264 274.065c13.947 15.976 38.205 17.621 54.18 3.673z" />
<glyph unicode="&#xe91a;" glyph-name="edit-square" d="M509.158 827.733h54.042c21.207 0 38.4-17.192 38.4-38.4s-17.193-38.4-38.4-38.4h-51.201c-81.539 0-138.829-0.082-182.151-5.906-42.216-5.676-65.373-16.164-82.042-32.834s-27.158-39.825-32.834-82.042c-5.824-43.322-5.906-100.613-5.906-182.151 0-81.541 0.082-138.829 5.906-182.149 5.676-42.22 16.165-65.377 32.834-82.043 16.67-16.671 39.826-27.162 82.042-32.835 43.322-5.827 100.613-5.908 182.151-5.908s138.83 0.082 182.15 5.908c42.22 5.673 65.372 16.164 82.043 32.835 16.671 16.666 27.156 39.823 32.835 82.043 5.827 43.32 5.903 100.608 5.903 182.149v51.199c0 21.208 17.193 38.4 38.4 38.4 21.212 0 38.4-17.192 38.4-38.4v-54.041c0.005-78.039 0.005-140.508-6.589-189.542-6.82-50.734-21.325-92.8-54.641-126.116-33.321-33.316-75.382-47.821-126.116-54.646-49.034-6.589-111.503-6.589-189.542-6.589h-5.685c-78.040 0-140.508 0-189.542 6.589-50.733 6.825-92.797 21.33-126.115 54.646s-47.822 75.382-54.643 126.116c-6.593 49.034-6.592 111.503-6.591 189.542v5.682c-0.001 78.041-0.002 140.509 6.591 189.544 6.821 50.733 21.326 92.797 54.643 126.114s75.382 47.823 126.115 54.644c49.035 6.593 111.503 6.591 189.544 6.591zM665.784 788.966c51.686 51.689 135.491 51.689 187.182 0s51.692-135.494 0-187.183l-225.746-225.75c-0.527-0.527-1.050-1.050-1.567-1.562-12.293-12.298-20.762-20.772-30.259-28.175-11.167-8.714-23.25-16.179-36.035-22.272-10.87-5.181-22.236-8.97-38.733-14.464-0.691-0.23-1.393-0.466-2.099-0.701l-97.567-32.522c-22.903-7.634-48.155-1.674-65.226 15.401-17.071 17.070-23.032 42.322-15.397 65.224l32.522 97.564c0.236 0.709 0.469 1.409 0.699 2.099 5.496 16.497 9.283 27.864 14.464 38.735 6.093 12.785 13.561 24.868 22.271 36.036 7.407 9.496 15.88 17.967 28.176 30.26 0.515 0.515 1.036 1.036 1.565 1.565l225.748 225.747zM798.659 734.66c-21.693 21.697-56.873 21.697-78.572 0l-7.603-7.603c0.353-1.13 0.737-2.307 1.157-3.525 4.398-12.67 12.749-29.45 28.595-45.298s32.625-24.196 45.297-28.592c1.219-0.422 2.396-0.807 3.523-1.157l7.603 7.603c21.699 21.697 21.699 56.874 0 78.572zM732.795 590.222c-14.52 7.96-30.003 18.843-44.867 33.706s-25.748 30.343-33.705 44.865l-159.882-159.881c-14.43-14.431-19.346-19.44-23.489-24.752-5.28-6.769-9.807-14.093-13.5-21.843-2.898-6.082-5.181-12.719-11.634-32.079l-12.24-36.721 24.040-24.038 36.721 12.237c19.358 6.456 25.999 8.74 32.081 11.638 7.747 3.692 15.073 8.218 21.842 13.496 5.309 4.142 10.322 9.062 24.75 23.491l159.882 159.881z" />
<glyph unicode="&#xe91b;" glyph-name="checklist" d="M385.694 780.673c14.068-15.073 13.254-38.697-1.819-52.766l-146.286-136.533c-7.572-7.067-17.74-10.671-28.073-9.95s-19.901 5.702-26.418 13.753l-41.448 51.2c-12.973 16.026-10.499 39.534 5.527 52.507s39.534 10.499 52.507-5.527l16.242-20.064 117.001 109.2c15.073 14.068 38.697 13.254 52.766-1.819zM385.694 541.74c14.068-15.075 13.254-38.696-1.819-52.767l-146.286-136.533c-7.572-7.066-17.74-10.671-28.073-9.95s-19.901 5.705-26.418 13.756l-41.448 51.2c-12.973 16.026-10.499 39.531 5.527 52.506s39.534 10.5 52.507-5.525l16.242-20.066 117.001 109.2c15.073 14.068 38.697 13.254 52.766-1.82zM381.795 299.166c12.058-12.919 11.36-33.169-1.56-45.227l-146.286-136.533c-6.49-6.059-15.206-9.148-24.062-8.529s-17.058 4.89-22.644 11.789l-41.448 51.2c-11.12 13.734-8.999 33.886 4.738 45.005 13.736 11.123 33.886 8.998 45.006-4.736l19.843-24.512 121.184 113.105c12.92 12.058 33.169 11.358 45.228-1.562zM480 209.067c0 17.673 14.327 32 32 32h341.333c17.673 0 32-14.327 32-32s-14.327-32-32-32h-341.333c-17.673 0-32 14.327-32 32zM480 448c0 17.673 14.327 32 32 32h341.333c17.673 0 32-14.327 32-32s-14.327-32-32-32h-341.333c-17.673 0-32 14.327-32 32zM480 686.933c0 17.673 14.327 32 32 32h341.333c17.673 0 32-14.327 32-32s-14.327-32-32-32h-341.333c-17.673 0-32 14.327-32 32z" />
<glyph unicode="&#xe91c;" glyph-name="heart-solid" d="M170.665 545.722c0-165.987 137.197-254.44 237.627-333.611 35.44-27.94 69.573-54.241 103.706-54.241 34.131 0 68.266 26.301 103.707 54.241 100.429 79.171 237.624 167.624 237.624 333.611s-187.735 283.704-341.331 124.125c-153.594 159.579-341.334 41.863-341.334-124.125zM408.293 212.111v0zM511.999 669.847l-27.667-26.629c7.239-7.521 17.228-11.771 27.667-11.771 10.441 0 20.43 4.25 27.664 11.771l-27.664 26.629zM615.706 212.111v0zM432.066 242.268c-52.494 41.38-107.645 80.169-151.536 129.592-42.574 47.939-71.464 102.852-71.464 173.862h-76.8c0-94.979 39.708-167.283 90.84-224.862 49.816-56.095 113.478-101.115 161.414-138.906l47.546 60.314zM209.065 545.722c0 68.627 38.759 125.514 90.633 149.225 49.453 22.605 117.664 17.849 184.634-51.73l55.331 53.258c-86.623 90-189.078 106.175-271.893 68.32-80.395-36.748-135.505-121.713-135.505-219.074h76.8zM384.52 181.955c17.367-13.691 36.825-28.959 56.742-40.596 19.905-11.633 43.922-21.888 70.737-21.888v76.8c-7.319 0-17.435 2.893-31.99 11.397-14.542 8.499-29.871 20.352-47.944 34.601l-47.546-60.314zM639.478 181.955c47.939 37.791 111.601 82.811 161.413 138.906 51.133 57.58 90.839 129.884 90.839 224.862h-76.8c0-71.010-28.887-125.923-71.46-173.862-43.894-49.423-99.046-88.212-151.537-129.592l47.544-60.314zM891.73 545.722c0 97.361-55.107 182.326-135.501 219.074-82.816 37.855-185.272 21.68-271.897-68.32l55.331-53.258c66.97 69.579 135.183 74.335 184.637 51.73 51.871-23.711 90.629-80.598 90.629-149.225h76.8zM591.933 242.268c-18.074-14.249-33.403-26.102-47.944-34.601-14.556-8.504-24.673-11.397-31.991-11.397v-76.8c26.814 0 50.832 10.255 70.739 21.888 19.917 11.638 39.373 26.906 56.74 40.596l-47.544 60.314z" />
<glyph unicode="&#xe91d;" glyph-name="heart" d="M408.294 212.111v0zM512 669.847l-23.055-22.191c6.031-6.267 14.358-9.809 23.055-9.809 8.7 0 17.024 3.542 23.055 9.809l-23.055 22.191zM615.706 212.111v0zM428.105 237.239c-52.114 41.084-107.975 80.391-152.359 130.37-43.287 48.742-73.079 105.106-73.079 178.114h-64c0-92.983 38.806-163.836 89.225-220.61 49.322-55.541 112.275-100.045 160.591-138.134l39.621 50.26zM202.668 545.723c0 71.021 40.122 130.248 94.372 155.046 52.233 23.876 123.298 18.168 191.906-53.113l46.109 44.382c-84.985 88.298-184.587 103.522-264.622 66.938-78.018-35.662-131.765-118.287-131.765-213.253h64zM388.484 186.979c17.426-13.736 36.539-28.716 56.009-40.093 19.46-11.374 42.317-21.018 67.507-21.018v64c-8.942 0-20.217 3.507-35.218 12.273-14.991 8.759-30.661 20.897-48.677 35.098l-39.621-50.26zM635.516 186.979c48.318 38.089 111.272 82.593 160.592 138.134 50.417 56.773 89.227 127.627 89.227 220.61h-64c0-73.008-29.795-129.371-73.081-178.114-44.383-49.979-100.246-89.285-152.36-130.37l39.621-50.26zM885.336 545.723c0 94.966-53.749 177.591-131.767 213.253-80.037 36.584-179.635 21.36-264.624-66.938l46.109-44.382c68.608 71.281 139.674 76.989 191.909 53.113 54.25-24.798 94.373-84.025 94.373-155.046h64zM595.895 237.239c-18.011-14.201-33.686-26.339-48.677-35.098-14.998-8.766-26.273-12.273-35.218-12.273v-64c25.19 0 48.051 9.644 67.507 21.018 19.471 11.377 38.587 26.357 56.009 40.093l-39.621 50.26z" />
<glyph unicode="&#xe91e;" glyph-name="trash" d="M180.903 652.799c0 22.622 18.339 40.96 40.96 40.96h580.272c22.62 0 40.96-18.338 40.96-40.96s-18.34-40.96-40.96-40.96h-580.272c-22.621 0-40.96 18.338-40.96 40.96zM276.2 605.782c21.16 1.411 39.458-14.6 40.869-35.761l15.699-235.491c3.090-46.351 5.236-77.379 9.832-100.454 4.381-21.985 10.057-31.421 16.675-37.612s16.407-11.228 38.64-14.136c23.328-3.052 54.427-3.128 100.884-3.128h26.399c46.454 0 77.553 0.077 100.884 3.128 22.231 2.908 32.020 7.946 38.641 14.136 6.615 6.19 12.293 15.626 16.671 37.612 4.598 23.076 6.743 54.103 9.836 100.454l15.698 235.491c1.413 21.161 19.707 37.172 40.868 35.761s37.171-19.708 35.763-40.869l-15.872-238.037c-2.872-43.136-5.279-79.222-10.972-107.802-6.021-30.228-16.614-57.262-39.526-78.694-22.907-21.432-50.586-30.203-81.147-34.202-28.897-3.779-65.055-3.779-108.288-3.779h-31.511c-43.231 0-79.393 0-108.289 3.779-30.56 3.999-58.238 12.769-81.147 34.202s-33.505 48.466-39.526 78.694c-5.694 28.58-8.098 64.66-10.973 107.796l-15.869 238.042c-1.411 21.16 14.6 39.458 35.761 40.869zM422.844 520.343c21.103 2.11 39.92-13.286 42.031-34.388l17.066-170.664c2.11-21.105-13.286-39.921-34.388-42.035-21.103-2.109-39.92 13.286-42.031 34.391l-17.066 170.666c-2.11 21.103 13.286 39.92 34.388 42.031zM601.155 520.343c21.1-2.11 36.495-20.928 34.386-42.031l-17.065-170.666c-2.109-21.105-20.931-36.5-42.030-34.391-21.105 2.115-36.5 20.931-34.391 42.035l17.070 170.664c2.109 21.103 20.925 36.499 42.030 34.388zM454.052 793.602c0.605-0.001 1.208-0.002 1.807-0.002h112.282c0.599 0 1.198 0.001 1.807 0.002 7.076 0.009 14.541 0.017 21.678-1.122 28.006-4.472 52.239-21.94 65.341-47.096 3.338-6.411 5.688-13.496 7.921-20.211 0.189-0.574 0.379-1.146 0.568-1.715l3.313-9.941c0 0 0 0 0 0 0.671-2.012 0.794-2.364 0.881-2.609 4.183-11.567 15.032-19.386 27.331-19.698 0.261-0.007 0.63-0.010 2.749-0.010v-76.8h-0.348c-1.556 0-2.98 0-4.347 0.034-43.919 1.113-82.662 29.038-97.603 70.349 0 0 0 0 0 0-0.466 1.284-0.916 2.637-1.408 4.108l-3.425 10.28c-1.485 4.45-2.345 7.015-3.046 8.938-0.445 1.209-0.666 1.715-0.722 1.838-0.005 0.012 0.005-0.012 0 0-1.869 3.562-5.304 6.039-9.277 6.686 0 0 0.026-0.003 0 0-0.133 0.015-0.681 0.066-1.971 0.103-2.048 0.060-4.751 0.063-9.441 0.063h-112.282c-4.69 0-7.395-0.004-9.443-0.063-1.287-0.037-1.837-0.088-1.972-0.103-0.013-0.002 0.013 0.002 0 0-3.971-0.647-7.407-3.123-9.276-6.685 0 0.001 0.010 0.022 0 0-0.056-0.123-0.278-0.628-0.721-1.839-0.705-1.924-1.563-4.489-3.046-8.938l-3.425-10.274c-0.492-1.477-0.943-2.829-1.407-4.114-14.944-41.311-53.687-69.236-97.604-70.349-1.367-0.034-2.791-0.034-4.347-0.034h-0.352v76.8c2.121 0 2.492 0.003 2.753 0.010 12.297 0.312 23.145 8.131 27.329 19.698 0.089 0.245 0.209 0.596 0.88 2.609l3.314 9.942c0.189 0.568 0.379 1.14 0.57 1.715 2.229 6.715 4.581 13.8 7.92 20.211 13.099 25.155 37.335 42.623 65.342 47.096 7.138 1.14 14.603 1.131 21.679 1.122z" />
<glyph unicode="&#xe91f;" glyph-name="share" d="M324.266 496.761c-26.93 0-48.762-21.829-48.762-48.761s21.831-48.761 48.762-48.761c26.93 0 48.762 21.829 48.762 48.761s-21.832 48.761-48.762 48.761zM202.362 448c0 67.328 54.578 121.904 121.905 121.904s121.905-54.576 121.905-121.904c0-67.324-54.579-121.904-121.905-121.904s-121.905 54.579-121.905 121.904zM610.227 656.706c11.582-16.547 7.559-39.35-8.989-50.933l-170.668-119.468c-16.545-11.582-39.347-7.556-50.933 8.989-11.582 16.549-7.556 39.351 8.989 50.933l170.668 119.467c16.545 11.583 39.351 7.559 50.933-8.988zM610.227 239.294c11.582 16.545 7.559 39.351-8.989 50.933l-170.668 119.468c-16.545 11.582-39.347 7.556-50.933-8.989-11.582-16.549-7.556-39.351 8.989-50.933l170.668-119.468c16.545-11.582 39.351-7.556 50.933 8.989zM665.6 274.896c-26.931 0-48.764-21.833-48.764-48.764s21.833-48.761 48.764-48.761c26.931 0 48.761 21.829 48.761 48.761s-21.829 48.764-48.761 48.764zM543.693 226.132c0 67.328 54.579 121.907 121.907 121.907 67.324 0 121.904-54.579 121.904-121.907 0-67.324-54.579-121.904-121.904-121.904-67.328 0-121.907 54.579-121.907 121.904zM665.6 718.628c-26.931 0-48.764-21.831-48.764-48.762s21.833-48.762 48.764-48.762c26.931 0 48.761 21.831 48.761 48.762s-21.829 48.762-48.761 48.762zM543.693 669.866c0 67.326 54.579 121.905 121.907 121.905 67.324 0 121.904-54.578 121.904-121.905s-54.579-121.906-121.904-121.906c-67.328 0-121.907 54.58-121.907 121.906z" />
<glyph unicode="&#xe920;" glyph-name="hamburger-menu" d="M822.4 618.667c0-20.619-16.713-37.333-37.333-37.333h-546.132c-20.619 0-37.333 16.715-37.333 37.333s16.715 37.333 37.333 37.333h546.132c20.621 0 37.333-16.715 37.333-37.333zM822.4 448c0-20.617-16.713-37.333-37.333-37.333h-546.132c-20.619 0-37.333 16.717-37.333 37.333s16.715 37.333 37.333 37.333h546.132c20.621 0 37.333-16.717 37.333-37.333zM822.4 277.333c0-20.617-16.713-37.333-37.333-37.333h-546.132c-20.619 0-37.333 16.717-37.333 37.333s16.715 37.333 37.333 37.333h546.132c20.621 0 37.333-16.717 37.333-37.333z" />
<glyph unicode="&#xe921;" glyph-name="confetti" d="M475.351 777.042c12.063-7.374 15.865-23.131 8.489-35.194-5.349-8.754-4.007-20.034 3.246-27.288l3.342-3.341c20.091-20.093 27.501-49.61 19.279-76.811-4.089-13.534-18.377-21.189-31.911-17.097-13.534 4.090-21.19 18.378-17.097 31.912 2.761 9.133 0.273 19.045-6.475 25.792l-3.342 3.341c-23.979 23.979-28.413 61.264-10.725 90.197 7.376 12.063 23.132 15.864 35.195 8.489zM706.188 696.437c13.865-2.773 22.856-16.259 20.081-30.123l-4.912-24.574c-6.765-33.821-31.133-61.422-63.853-72.331-15.288-5.096-26.675-17.992-29.836-33.795l-4.915-24.573c-2.772-13.865-16.258-22.856-30.123-20.084-13.862 2.772-22.856 16.261-20.081 30.123l4.915 24.576c6.762 33.819 31.13 61.42 63.85 72.329 15.288 5.095 26.675 17.993 29.836 33.796l4.915 24.574c2.772 13.864 16.258 22.855 30.123 20.082zM502.388 556.783c-27.945 27.945-50.968 50.975-70.984 65.811-20.675 15.33-43.657 26.133-70.12 19.886-26.462-6.247-42.184-26.186-53.823-49.144-11.265-22.224-21.561-53.115-34.057-90.607l-59.052-177.155c-15.133-45.397-27.413-82.234-32.494-110.797-5.128-28.822-4.61-58.071 17.102-79.783s50.96-22.231 79.782-17.104c28.563 5.082 65.4 17.364 110.794 32.495l177.159 59.054c37.489 12.493 68.386 22.791 90.607 34.055 22.958 11.639 42.899 27.361 49.145 53.825s-4.557 49.442-19.886 70.12c-14.838 20.012-37.864 43.039-65.809 70.984l-118.364 118.361zM399.159 582.745c0.573-0.41 1.157-0.836 1.754-1.28 16.592-12.302 36.946-32.56 66.785-62.399l25.935-25.931c-0.515-1.345-1.085-2.86-1.696-4.54-2.632-7.209-6.089-17.476-9.537-30.037-6.854-24.989-13.851-59.713-13.851-97.782 0-36.253 7.028-70.984 13.821-96.236 2.826-10.516 5.659-19.552 8.025-26.566l-89.931-29.979c-0.369 1.683-0.782 3.56-1.225 5.615-2.079 9.615-4.895 23.071-7.83 38.403-5.932 30.962-12.145 68.489-14.046 97.498-3.144 47.916 2.993 110.445 10.254 162.171 3.594 25.614 7.393 48.125 10.295 64.222 0.44 2.43 0.857 4.717 1.249 6.84zM339.77 538.334c-5.404-14.691-11.337-32.43-18.47-53.828l-57.668-173.001c-16.008-48.026-27.022-81.278-31.365-105.697-4.377-24.6-0.303-31.409 2.898-34.608 3.201-3.202 10.009-7.277 34.611-2.898 20.152 3.584 46.325 11.711 81.853 23.443-0.611 2.714-1.444 6.461-2.434 11.042-2.144 9.916-5.045 23.777-8.075 39.595-6.003 31.341-12.73 71.448-14.85 103.782-3.504 53.432 3.298 120.3 10.641 172.633 0.946 6.741 1.906 13.274 2.86 19.538zM538.965 254.164l9.51 3.171c40.032 13.343 67.253 22.487 85.678 31.829 18.087 9.168 21.408 15.449 22.463 19.917 1.055 4.471 0.894 11.575-11.185 27.863-12.302 16.592-32.56 36.949-62.396 66.785l-49.036 49.036c-0.734-2.451-1.478-5.038-2.222-7.755-6.083-22.17-12.029-52.142-12.029-84.234 0-21.115 2.908-42.151 6.762-60.716 1.645-7.919 3.461-15.387 5.301-22.221 2.54-9.441 5.076-17.51 7.154-23.675zM796.344 423.086c10.083 8.943 24.443 11.209 36.789 5.809l9.95-4.349c12.954-5.666 28.047 0.246 33.71 13.199 5.666 12.954-0.246 28.047-13.199 33.713l-9.95 4.349c-30.631 13.394-66.253 7.769-91.269-14.415-11.131-9.871-27.334-11.513-40.223-4.072l-7.264 4.195c-12.244 7.069-27.901 2.874-34.97-9.37s-2.874-27.901 9.37-34.97l7.264-4.195c31.973-18.459 72.172-14.391 99.792 10.103zM579.543 719.091c-3.966-1.257-7.4-4.689-14.261-11.552-6.864-6.863-10.295-10.294-11.554-14.262-1.062-3.356-1.062-6.959 0-10.315 1.26-3.967 4.69-7.399 11.554-14.262 6.861-6.863 10.295-10.294 14.261-11.552 3.355-1.064 6.96-1.064 10.315 0 3.966 1.258 7.397 4.689 14.261 11.552s10.295 10.294 11.551 14.262c1.065 3.356 1.065 6.959 0 10.315-1.256 3.968-4.687 7.399-11.551 14.262s-10.295 10.294-14.261 11.552c-3.355 1.064-6.96 1.064-10.315 0zM766.915 602.685c8.376 8.376 12.564 12.564 17.289 14.384 5.53 2.131 11.653 2.131 17.183 0 4.724-1.819 8.912-6.007 17.289-14.384s12.564-12.564 14.384-17.289c2.13-5.53 2.13-11.653 0-17.183-1.819-4.724-6.007-8.912-14.384-17.289-8.376-8.373-12.564-12.561-17.289-14.384-5.53-2.13-11.653-2.13-17.183 0-4.724 1.823-8.912 6.011-17.289 14.384-8.376 8.376-12.564 12.564-14.384 17.289-2.13 5.53-2.13 11.653 0 17.183 1.819 4.724 6.007 8.912 14.384 17.289zM364.745 723.088c-7.151 7.15-18.743 7.15-25.891 0-7.15-7.15-7.15-18.742 0-25.892s18.74-7.15 25.891 0 7.151 18.742 0 25.892zM752.92 334.906c7.151 7.148 18.743 7.148 25.894 0 7.148-7.151 7.148-18.743 0-25.894-7.151-7.151-18.743-7.151-25.894 0-7.148 7.151-7.148 18.743 0 25.894zM725.627 525.094c-7.151 7.148-18.743 7.148-25.894 0-7.151-7.151-7.151-18.743 0-25.894s18.743-7.151 25.894 0c7.148 7.151 7.148 18.743 0 25.894z" />
<glyph unicode="&#xe922;" glyph-name="add-circle" d="M512 757.333c-170.84 0-309.333-138.493-309.333-309.333 0-170.842 138.493-309.333 309.333-309.333 170.842 0 309.333 138.492 309.333 309.333 0 170.84-138.492 309.333-309.333 309.333zM138.667 448c0 206.186 167.147 373.333 373.333 373.333s373.333-167.147 373.333-373.333c0-206.187-167.147-373.333-373.333-373.333s-373.333 167.147-373.333 373.333zM512 582.4c17.673 0 32-14.327 32-32v-70.4h70.4c17.673 0 32-14.327 32-32s-14.327-32-32-32h-70.4v-70.4c0-17.673-14.327-32-32-32s-32 14.327-32 32v70.4h-70.401c-17.673 0-32 14.327-32 32s14.327 32 32 32h70.401v70.4c0 17.673 14.327 32 32 32z" />
<glyph unicode="&#xe923;" glyph-name="minus-circle" d="M512 757.333c-170.84 0-309.333-138.493-309.333-309.333 0-170.842 138.493-309.333 309.333-309.333 170.842 0 309.333 138.492 309.333 309.333 0 170.84-138.492 309.333-309.333 309.333zM138.667 448c0 206.186 167.147 373.333 373.333 373.333s373.333-167.147 373.333-373.333c0-206.187-167.147-373.333-373.333-373.333s-373.333 167.147-373.333 373.333zM646.4 448c0-17.673-14.327-32-32-32h-204.799c-17.673 0-32 14.327-32 32s14.327 32 32 32h204.799c17.673 0 32-14.327 32-32z" />
<glyph unicode="&#xe924;" glyph-name="clock-circle" d="M511.999 750.934c-167.306 0-302.934-135.628-302.934-302.934s135.628-302.935 302.934-302.935c167.307 0 302.931 135.629 302.931 302.935s-135.624 302.934-302.931 302.934zM132.265 448c0 209.721 170.013 379.734 379.734 379.734s379.731-170.013 379.731-379.734c0-209.72-170.010-379.735-379.731-379.735s-379.734 170.015-379.734 379.735zM512 622.934c21.207 0 38.4-17.192 38.4-38.4v-120.628l74.086-74.084c14.996-14.996 14.996-39.311 0-54.308s-39.311-14.996-54.308 0l-85.331 85.335c-7.201 7.199-11.247 16.968-11.247 27.151v136.534c0 21.208 17.192 38.4 38.4 38.4z" />
<glyph unicode="&#xe925;" glyph-name="close-circle" d="M511.999 750.933c-167.306 0-302.934-135.628-302.934-302.933s135.628-302.935 302.934-302.935c167.307 0 302.931 135.629 302.931 302.935s-135.624 302.933-302.931 302.933zM132.265 448c0 209.721 170.013 379.733 379.734 379.733s379.731-170.012 379.731-379.733c0-209.72-170.010-379.735-379.731-379.735s-379.734 170.015-379.734 379.735zM399.513 560.487c14.996 14.996 39.31 14.996 54.306 0l58.181-58.181 58.179 58.18c14.996 14.996 39.311 14.996 54.308 0s14.996-39.31 0-54.306l-58.184-58.18 58.184-58.179c14.996-14.996 14.996-39.311 0-54.308s-39.311-14.996-54.308 0l-58.179 58.179-58.18-58.179c-14.996-14.996-39.31-14.996-54.306 0s-14.996 39.311 0 54.308l58.18 58.179-58.181 58.181c-14.996 14.996-14.996 39.31 0 54.306z" />
<glyph unicode="&#xe926;" glyph-name="close-circle-regular" d="M512 846.739c-220.218 0-398.739-178.521-398.739-398.739s178.521-398.739 398.739-398.739c220.218 0 398.739 178.52 398.739 398.739s-178.52 398.739-398.739 398.739zM57.406 448c0 251.066 203.528 454.594 454.594 454.594s454.593-203.528 454.593-454.594c0-251.066-203.527-454.593-454.593-454.593s-454.594 203.527-454.594 454.593zM364.251 595.747c10.906 10.908 28.588 10.908 39.496 0l108.251-108.253 108.253 108.253c10.906 10.906 28.588 10.906 39.496 0 10.906-10.906 10.906-28.588 0-39.496l-108.253-108.251 108.251-108.251c10.906-10.906 10.906-28.588 0-39.496-10.906-10.906-28.588-10.906-39.494 0l-108.253 108.251-108.251-108.251c-10.906-10.906-28.588-10.906-39.496 0-10.906 10.906-10.906 28.588 0 39.494l108.253 108.253-108.253 108.253c-10.906 10.906-10.906 28.588 0 39.494z" />
<glyph unicode="&#xe927;" glyph-name="check-circle-regular" d="M511.999 750.933c-167.306 0-302.934-135.628-302.934-302.933s135.628-302.935 302.934-302.935c167.307 0 302.931 135.629 302.931 302.935s-135.624 302.933-302.931 302.933zM132.265 448c0 209.721 170.013 379.733 379.734 379.733s379.731-170.012 379.731-379.733c0-209.72-170.010-379.735-379.731-379.735s-379.734 170.015-379.734 379.735zM658.621 560.486c14.996-14.996 14.996-39.309 0-54.306l-170.668-170.666c-7.201-7.204-16.969-11.249-27.153-11.249s-19.952 4.045-27.153 11.249l-68.266 68.265c-14.996 14.996-14.996 39.311 0 54.307s39.309 14.996 54.306 0l41.114-41.113 143.513 143.513c14.996 14.996 39.311 14.996 54.308 0z" />
<glyph unicode="&#xe928;" glyph-name="box" d="M475.593 743.041c-17.071-7.061-37.807-17.902-68.364-33.937l-68.267-35.825c-37.412-19.633-62.897-33.062-81.787-45.676-18.105-12.091-27.559-21.802-33.947-32.65-6.45-10.954-10.609-24.49-12.859-47.334-2.327-23.625-2.369-53.799-2.369-97.622v-3.994c0-43.823 0.042-73.997 2.369-97.621 2.25-22.844 6.409-36.382 12.859-47.334 6.388-10.85 15.842-20.561 33.947-32.649 18.89-12.617 44.375-26.044 81.787-45.679l68.267-35.823c30.557-16.034 51.293-26.876 68.364-33.937 16.388-6.775 26.893-8.96 36.407-8.96s20.019 2.185 36.407 8.96c17.071 7.061 37.807 17.903 68.365 33.937l68.267 35.823c37.41 19.635 62.895 33.062 81.788 45.679 18.103 12.087 27.558 21.798 33.946 32.649 6.451 10.953 10.607 24.491 12.86 47.334 2.325 23.625 2.368 53.798 2.368 97.621v3.994c0 43.823-0.043 73.997-2.368 97.622-2.253 22.844-6.409 36.381-12.86 47.334-6.387 10.848-15.842 20.559-33.946 32.65-18.893 12.615-44.378 26.043-81.788 45.676l-68.267 35.825c-30.558 16.035-51.294 26.876-68.365 33.937-16.384 6.777-26.893 8.959-36.407 8.959s-20.019-2.182-36.407-8.959zM447.057 812.040c21.636 8.947 42.227 14.627 64.943 14.627s43.307-5.679 64.943-14.627c20.595-8.517 44.339-20.979 73.045-36.044l71.479-37.511c35.247-18.497 64.265-33.722 86.822-48.789 23.718-15.837 42.82-33.075 56.823-56.856 13.939-23.675 19.977-48.998 22.822-77.902 2.731-27.711 2.731-61.571 2.731-103.082v-7.714c0-41.51 0-75.371-2.731-103.083-2.846-28.902-8.883-54.225-22.822-77.901-14.003-23.782-33.105-41.020-56.823-56.858-22.558-15.066-51.575-30.289-86.822-48.789l-71.479-37.508c-28.706-15.066-52.45-27.529-73.045-36.045-21.636-8.947-42.227-14.626-64.943-14.626s-43.307 5.679-64.943 14.626c-20.594 8.516-44.34 20.979-73.047 36.045l-71.48 37.513c-35.247 18.496-64.262 33.719-86.822 48.785-23.714 15.838-42.816 33.075-56.82 56.858-13.941 23.676-19.978 48.998-22.825 77.901-2.73 27.712-2.729 61.572-2.729 103.083v7.714c0 41.51-0.001 75.371 2.729 103.082 2.847 28.903 8.884 54.227 22.825 77.902 14.004 23.781 33.106 41.019 56.82 56.856 22.561 15.066 51.576 30.292 86.824 48.789l71.48 37.511c28.705 15.064 52.451 27.526 73.045 36.044zM325.363 721.388c9.603 18.246 32.179 25.252 50.425 15.649l307.314-161.745 119.403 59.7c18.441 9.221 40.866 1.746 50.086-16.696s1.745-40.867-16.695-50.088l-115.895-57.949v-96.393c0-20.617-16.717-37.333-37.333-37.333-20.621 0-37.333 16.717-37.333 37.333v59.059l-96-48v-301.193c0-20.617-16.717-37.333-37.333-37.333-20.621 0-37.333 16.717-37.333 37.333v301.193l-286.563 143.282c-18.442 9.221-25.917 31.646-16.696 50.088s31.646 25.917 50.088 16.696l290.504-145.251 88.892 44.445-259.88 136.778c-18.246 9.603-25.252 32.179-15.649 50.425z" />
<glyph unicode="&#xe929;" glyph-name="login" d="M577.988 821.333h38.69c46.332 0.001 84.322 0.002 114.347-4.035 31.433-4.226 58.876-13.398 80.811-35.331 21.931-21.932 31.104-49.377 35.328-80.81 4.036-30.022 4.036-68.013 4.036-114.345v-277.625c0-46.332 0-84.326-4.036-114.347-4.224-31.433-13.397-58.876-35.328-80.811-21.935-21.931-49.378-31.104-80.811-35.328-30.025-4.036-68.015-4.036-114.347-4.036h-38.69c-46.332 0-84.326 0-114.347 4.036-31.433 4.224-58.878 13.397-80.811 35.328-21.933 21.935-31.104 49.378-35.33 80.811-4.037 30.025-4.036 68.015-4.035 114.347v2.278c0 17.673 14.327 32 32 32s32-14.327 32-32c0-49.178 0.068-82.842 3.464-108.096 3.272-24.337 9.097-36.023 17.158-44.083 8.060-8.060 19.746-13.884 44.083-17.156 25.254-3.396 58.918-3.465 108.096-3.465h34.133c49.178 0 82.837 0.068 108.096 3.465 24.337 3.273 36.023 9.097 44.083 17.156s13.884 19.746 17.156 44.083c3.396 25.254 3.465 58.918 3.465 108.096v273.067c0 49.176-0.068 82.839-3.465 108.097-3.273 24.336-9.097 36.024-17.156 44.083s-19.746 13.884-44.083 17.156c-25.259 3.396-58.918 3.464-108.096 3.464h-34.133c-49.178 0-82.842-0.068-108.096-3.464-24.337-3.272-36.023-9.097-44.083-17.156-8.061-8.059-13.885-19.747-17.158-44.083-3.396-25.257-3.464-58.921-3.464-108.097 0-17.673-14.327-32-32-32s-32 14.327-32 32v2.278c-0.001 46.333-0.002 84.324 4.035 114.346 4.226 31.433 13.397 58.878 35.33 80.81s49.378 31.104 80.811 35.331c30.020 4.036 68.015 4.035 114.347 4.035zM373.248 736h2.219v-64c-41.131 0-68.76-0.068-89.37-2.839-19.689-2.647-28.116-7.222-33.676-12.782s-10.135-13.987-12.782-33.676c-2.771-20.61-2.839-48.239-2.839-89.37v-170.667c0-41.131 0.068-68.762 2.839-89.37 2.647-19.691 7.222-28.117 12.782-33.677s13.987-10.133 33.676-12.783c20.61-2.769 48.239-2.837 89.37-2.837v-64h-2.218c-38.336 0-70.302-0.004-95.68 3.409-26.786 3.601-50.969 11.524-70.403 30.959-19.433 19.43-27.355 43.614-30.957 70.4-3.412 25.378-3.411 57.344-3.409 95.68v175.104c-0.001 38.335-0.002 70.302 3.409 95.679 3.601 26.786 11.523 50.969 30.957 70.403s43.617 27.355 70.403 30.957c25.377 3.412 57.344 3.411 95.679 3.409zM637.030 470.626c12.493-12.497 12.493-32.755 0-45.252l-85.333-85.333c-12.497-12.497-32.759-12.497-45.257 0s-12.497 32.755 0 45.252l30.707 30.707h-229.947c-17.673 0-32 14.327-32 32s14.327 32 32 32h229.947l-30.707 30.707c-12.497 12.497-12.497 32.757 0 45.254s32.759 12.497 45.257 0l85.333-85.335z" />
<glyph unicode="&#xe92a;" glyph-name="logout" d="M577.603 827.733h39.46c46.003 0.001 84.362 0.003 114.816-4.092 32.143-4.321 61.164-13.828 84.48-37.148 23.322-23.32 32.829-52.34 37.151-84.484 4.091-30.453 4.091-68.813 4.091-114.815v-278.392c0-46.003 0-84.362-4.091-114.816-4.321-32.143-13.829-61.164-37.151-84.48-23.316-23.322-52.337-32.829-84.48-37.151-30.454-4.091-68.813-4.091-114.816-4.091h-39.46c-46.003 0-84.362 0-114.814 4.091-32.143 4.321-61.164 13.829-84.484 37.151-20.32 20.316-30.21 45.041-35.262 72.545-4.851 26.409-5.712 58.255-5.918 95.068-0.118 21.207 16.978 38.492 38.186 38.61s38.495-16.978 38.613-38.185c0.208-37.427 1.199-62.802 4.655-81.618 3.254-17.715 8.123-26.209 14.031-32.118 6.672-6.671 16.784-12.16 40.411-15.334 24.731-3.328 57.886-3.41 107.243-3.41h34.135c49.357 0 82.514 0.082 107.244 3.41 23.629 3.174 33.736 8.663 40.412 15.334 6.671 6.676 12.16 16.788 15.334 40.412 3.328 24.735 3.41 57.887 3.41 107.244v273.068c0 49.358-0.082 82.513-3.41 107.244-3.174 23.627-8.663 33.739-15.334 40.411-6.676 6.672-16.783 12.162-40.412 15.338-24.73 3.325-57.887 3.406-107.244 3.406h-34.135c-49.357 0-82.512-0.081-107.243-3.406-23.627-3.176-33.739-8.667-40.411-15.338-5.908-5.908-10.778-14.401-14.031-32.117-3.456-18.813-4.447-44.192-4.655-81.618-0.118-21.208-17.405-38.304-38.613-38.186s-38.304 17.406-38.186 38.614c0.205 36.814 1.067 68.659 5.918 95.066 5.052 27.505 14.942 52.228 35.262 72.548 23.32 23.32 52.34 32.826 84.484 37.148 30.453 4.094 68.811 4.093 114.814 4.092zM372.887 742.4c0.857 0 1.717 0 2.58 0v-76.8c-41.312 0-68.433-0.082-88.517-2.782-18.979-2.552-25.83-6.792-30.003-10.965s-8.413-11.024-10.965-30.003c-2.7-20.084-2.782-47.205-2.782-88.517v-170.668c0-41.308 0.082-68.434 2.782-88.515 2.552-18.98 6.792-25.83 10.965-30.003s11.024-8.412 30.003-10.967c20.084-2.698 47.205-2.78 88.517-2.78v-76.8h-2.58c-38.023 0-70.362-0.005-96.171 3.466-27.495 3.697-53.255 11.955-74.075 32.773-20.821 20.823-29.078 46.582-32.774 74.076-3.47 25.81-3.468 58.148-3.467 96.169v173.249c0 0.863 0 1.723 0 2.58-0.002 38.022-0.003 70.361 3.467 96.17 3.697 27.495 11.953 53.255 32.774 74.075s46.58 29.078 74.075 32.774c25.809 3.47 58.148 3.468 96.17 3.467zM280.047 475.153c-14.996-14.996-14.996-39.308 0-54.305l68.266-68.27c14.996-14.991 39.31-14.991 54.306 0 14.996 14.996 14.996 39.311 0 54.308l-2.714 2.714h214.494c21.207 0 38.4 17.193 38.4 38.401s-17.193 38.4-38.4 38.4h-214.494l2.714 2.714c14.996 14.996 14.996 39.31 0 54.306s-39.309 14.996-54.306 0l-68.266-68.266z" />
<glyph unicode="&#xe92b;" glyph-name="arrow-left" d="M220.832 429.898c-9.997 9.997-9.997 26.208 0 36.205l204.8 204.8c9.997 9.997 26.208 9.997 36.205 0s9.997-26.206 0-36.204l-161.099-161.098h484.331c14.138 0 25.6-11.462 25.6-25.6s-11.462-25.6-25.6-25.6h-484.331l161.099-161.098c9.997-9.997 9.997-26.208 0-36.205s-26.208-9.997-36.205 0l-204.8 204.8z" />
<glyph unicode="&#xe92c;" glyph-name="arrow-right" d="M803.168 466.102c9.997-9.997 9.997-26.208 0-36.205l-204.8-204.8c-9.997-9.997-26.208-9.997-36.205 0s-9.997 26.208 0 36.205l161.098 161.098h-484.328c-14.139 0-25.6 11.462-25.6 25.6s11.461 25.6 25.6 25.6h484.328l-161.098 161.098c-9.997 9.998-9.997 26.207 0 36.204s26.208 9.997 36.205 0l204.8-204.799z" />
<glyph unicode="&#xe92d;" glyph-name="arrow-left-solid" d="M473.903 682.961c16.661-16.662 16.661-43.677 0-60.34l-131.964-131.964h443.128c23.565 0 42.667-19.102 42.667-42.667s-19.102-42.667-42.667-42.667h-443.128l131.964-131.964c16.661-16.661 16.661-43.678 0-60.339s-43.678-16.661-60.34 0l-204.8 204.8c-8.002 8-12.497 18.854-12.497 30.17s4.495 22.17 12.497 30.17l204.8 204.8c16.662 16.663 43.679 16.663 60.34 0z" />
<glyph unicode="&#xe92e;" glyph-name="arrow-down-solid" d="M512 759.467c21.207 0 38.4-17.192 38.4-38.4v-453.429l139.249 139.249c14.996 14.996 39.306 14.996 54.303 0s14.996-39.311 0-54.308l-204.8-204.8c-14.996-14.991-39.308-14.991-54.304 0l-204.8 204.8c-14.996 14.996-14.996 39.311 0 54.308s39.31 14.996 54.306 0l139.247-139.249v453.429c0 21.208 17.192 38.4 38.4 38.4z" />
<glyph unicode="&#xe92f;" glyph-name="chevron-right" d="M388.774 184.772c-13.419 11.499-14.973 31.701-3.471 45.12l186.95 218.108-186.95 218.108c-11.502 13.418-9.948 33.62 3.471 45.121s33.62 9.948 45.12-3.471l204.8-238.933c10.274-11.985 10.274-29.666 0-41.651l-204.8-238.933c-11.5-13.419-31.702-14.972-45.12-3.469z" />
<glyph unicode="&#xe930;" glyph-name="chevron-down" d="M248.769 571.225c11.502 13.418 31.703 14.972 45.122 3.471l218.109-186.95 218.108 186.95c13.419 11.501 33.621 9.947 45.12-3.471 11.503-13.419 9.95-33.62-3.469-45.12l-238.933-204.8c-11.985-10.274-29.666-10.274-41.651 0l-238.934 204.8c-13.418 11.5-14.972 31.701-3.471 45.12z" />
<glyph unicode="&#xe931;" glyph-name="users-group" d="M546.167 652.8c0-75.405-61.128-136.533-136.533-136.533s-136.533 61.128-136.533 136.533c0 75.405 61.128 136.533 136.533 136.533s136.533-61.128 136.533-136.533zM648.566 277.299c0-75.405-106.974-136.533-238.933-136.533s-238.933 61.128-238.933 136.533c0 75.405 106.974 136.533 238.933 136.533s238.933-61.128 238.933-136.533zM819.188 277.317c0-56.552-69.48-102.398-154.311-102.398 24.992 27.317 42.177 61.607 42.177 102.351 0 40.791-17.225 75.114-42.266 102.447 84.832 0 154.4-45.846 154.4-102.4zM716.788 652.774c0-56.554-45.846-102.4-102.4-102.4-12.333 0-24.155 2.18-35.105 6.176 16.15 28.402 25.372 61.255 25.372 96.264 0 34.981-9.208 67.81-25.334 96.199 10.939 3.988 22.749 6.162 35.068 6.162 56.554 0 102.4-45.846 102.4-102.4z" />
<glyph unicode="&#xe932;" glyph-name="user" d="M511.999 750.933c-54.198 0-98.134-43.936-98.134-98.134s43.936-98.134 98.134-98.134c54.196 0 98.131 43.936 98.131 98.134s-43.935 98.134-98.131 98.134zM337.065 652.799c0 96.613 78.321 174.934 174.934 174.934 96.615 0 174.931-78.321 174.931-174.934s-78.316-174.934-174.931-174.934c-96.613 0-174.934 78.321-174.934 174.934zM362.099 340.536c-37.535-21.448-50.634-45.225-50.634-63.201s13.099-41.754 50.634-63.206c36.448-20.823 89.364-34.929 149.9-34.929s113.45 14.106 149.899 34.929c37.535 21.453 50.632 45.23 50.632 63.206s-13.097 41.754-50.632 63.201c-36.449 20.828-89.364 34.929-149.899 34.929s-113.452-14.1-149.9-34.929zM323.996 407.219c50.029 28.585 116.579 45.048 188.003 45.048s137.975-16.463 188.002-45.048c48.942-27.971 89.329-72.453 89.329-129.884s-40.387-101.919-89.329-129.884c-50.028-28.59-116.577-45.051-188.002-45.051s-137.975 16.461-188.003 45.051c-48.942 27.965-89.33 72.453-89.33 129.884s40.388 101.914 89.33 129.884z" />
<glyph unicode="&#xe933;" glyph-name="user-rounded" d="M648.533 652.8c0-75.405-61.128-136.533-136.533-136.533s-136.533 61.128-136.533 136.533c0 75.405 61.128 136.533 136.533 136.533s136.533-61.128 136.533-136.533zM750.933 277.333c0-75.405-106.974-136.533-238.933-136.533s-238.933 61.128-238.933 136.533c0 75.405 106.974 136.533 238.933 136.533s238.933-61.128 238.933-136.533z" />
<glyph unicode="&#xe934;" glyph-name="lock-unlocked" d="M332.8 584.534c0 98.968 80.23 179.199 179.2 179.199 83.466 0 153.661-57.085 173.555-134.38 3.523-13.693 17.482-21.936 31.174-18.413 13.69 3.523 21.933 17.482 18.41 31.173-25.574 99.368-115.747 172.819-223.139 172.819-127.248 0-230.401-103.154-230.401-230.399v-70.131c-38.050-2.842-62.829-10.016-80.941-28.128-29.992-29.994-29.992-78.266-29.992-174.81s0-144.813 29.992-174.806c29.992-29.994 78.264-29.994 174.807-29.994h273.066c96.544 0 144.816 0 174.81 29.994 29.99 29.994 29.99 78.262 29.99 174.806s0 144.816-29.99 174.81c-29.994 29.99-78.266 29.99-174.81 29.99h-273.066c-15.411 0-29.594 0-42.666-0.122v68.39z" />
<glyph unicode="&#xe935;" glyph-name="eye" d="M435.2 448c0 42.415 34.385 76.8 76.8 76.8s76.8-34.385 76.8-76.8c0-42.415-34.385-76.8-76.8-76.8s-76.8 34.385-76.8 76.8zM170.667 448c0 55.957 14.505 74.803 43.516 112.492 57.927 75.256 155.075 160.574 297.817 160.574s239.889-85.318 297.818-160.574c29.009-37.689 43.516-56.535 43.516-112.492s-14.507-74.803-43.516-112.491c-57.929-75.26-155.076-160.576-297.818-160.576s-239.89 85.316-297.817 160.576c-29.011 37.687-43.516 56.533-43.516 112.491zM512 576c-70.694 0-128-57.309-128-128 0-70.694 57.306-128 128-128s128 57.306 128 128c0 70.69-57.306 128-128 128z" />
<glyph unicode="&#xe936;" glyph-name="eye-closed" d="M157.22 650.040c17.327 7.426 37.393-0.6 44.819-17.928l-31.373-13.446c31.373 13.446 31.378 13.434 31.373 13.446l-0.017 0.041c-0.003 0.006-0.010 0.022 0 0l0.134-0.303c0.137-0.308 0.372-0.831 0.706-1.554 0.669-1.448 1.733-3.697 3.201-6.632 2.938-5.875 7.474-14.469 13.667-24.873 12.425-20.873 31.301-48.673 57.015-76.364 6.061-6.528 12.475-13.026 19.25-19.405 0.283-0.26 0.564-0.521 0.84-0.789 50.677-47.454 121.376-88.367 215.165-88.367 41.263 0 77.769 7.876 109.939 20.54 41.847 16.474 76.924 41.271 105.634 68.215 32.414 30.426 56.222 63.137 71.94 88.363 7.829 12.564 13.568 23.136 17.293 30.444 1.86 3.65 3.217 6.474 4.070 8.311 0.431 0.918 0.734 1.588 0.913 1.991l0.171 0.382c7.428 17.318 27.494 25.352 44.817 17.928 17.327-7.426 25.353-27.492 17.929-44.819l-31.373 13.446c31.373-13.446 31.377-13.438 31.373-13.446l-0.073-0.171-0.124-0.281-0.393-0.882c-0.324-0.728-0.781-1.733-1.365-2.993-1.178-2.521-2.884-6.070-5.133-10.48-4.493-8.812-11.179-21.106-20.169-35.531-13.743-22.057-33.062-49.411-58.402-76.99l27.221-27.221c13.329-13.329 13.329-34.94 0-48.273-13.333-13.329-34.944-13.329-48.273 0l-28.681 28.681c-19.26-15.556-40.811-30.229-64.747-42.889l26.705-41.041c10.283-15.799 5.807-36.945-9.993-47.228-15.799-10.278-36.945-5.803-47.228 9.997l-33.634 51.695c-23.177-7.104-47.936-12.139-74.287-14.498v-52.715c0-18.85-15.283-34.133-34.133-34.133-18.854 0-34.133 15.283-34.133 34.133v52.71c-26.441 2.359-51.196 7.407-74.296 14.49l-33.629-51.682c-10.281-15.799-31.425-20.275-47.226-9.997-15.801 10.283-20.276 31.428-9.994 47.228l26.706 41.045c-23.898 12.646-45.456 27.319-64.741 42.893l-28.686-28.689c-13.33-13.329-34.942-13.329-48.272 0-13.33 13.333-13.33 34.944 0 48.273l27.219 27.221c-28.842 31.394-49.923 62.533-63.881 85.982-7.14 11.996-12.47 22.069-16.066 29.26-1.799 3.599-3.168 6.483-4.116 8.535-0.474 1.026-0.843 1.845-1.108 2.441l-0.32 0.727-0.102 0.235-0.037 0.085-0.015 0.034c-0.006 0.015-0.012 0.029 31.361 13.475l-31.361-13.475c-7.426 17.327 0.588 37.422 17.915 44.848z" />
<glyph unicode="&#xe937;" glyph-name="list-heart" d="M179.192 652.804c0 14.139 11.462 25.6 25.6 25.6h580.267c14.137 0 25.6-11.461 25.6-25.6s-11.463-25.6-25.6-25.6h-580.267c-14.138 0-25.6 11.461-25.6 25.6zM179.192 482.137c0 14.139 11.462 25.6 25.6 25.6h204.8c14.139 0 25.6-11.461 25.6-25.6 0-14.137-11.461-25.6-25.6-25.6h-204.8c-14.138 0-25.6 11.463-25.6 25.6zM179.192 311.471c0 14.137 11.462 25.6 25.6 25.6h238.933c14.139 0 25.6-11.463 25.6-25.6 0-14.139-11.461-25.6-25.6-25.6h-238.933c-14.138 0-25.6 11.461-25.6 25.6zM546.125 457.74c0-59.821 73.842-123.414 119.129-156.79 15.502-11.425 23.253-17.138 34.471-17.138 11.221 0 18.972 5.713 34.473 17.138 45.286 33.375 119.127 96.967 119.127 156.79 0 91.382-84.482 125.499-153.6 54.908-69.116 70.591-153.6 36.472-153.6-54.908z" />
<glyph unicode="&#xe938;" glyph-name="menu-dots" d="M341.333 448c0-37.705-30.564-68.267-68.267-68.267s-68.267 30.562-68.267 68.267c0 37.705 30.564 68.267 68.267 68.267s68.267-30.562 68.267-68.267zM580.267 448c0-37.705-30.566-68.267-68.267-68.267-37.705 0-68.267 30.562-68.267 68.267s30.562 68.267 68.267 68.267c37.7 0 68.267-30.562 68.267-68.267zM819.2 448c0-37.705-30.566-68.267-68.267-68.267-37.705 0-68.267 30.562-68.267 68.267s30.562 68.267 68.267 68.267c37.7 0 68.267-30.562 68.267-68.267z" />
<glyph unicode="&#xe939;" glyph-name="delivery" d="M428.868 559.599l17.557-63.557c16.555-59.925 24.832-89.886 49.169-103.514s55.228-5.602 117.013 10.458l65.532 17.028c61.781 16.055 92.672 24.085 106.726 47.689 14.050 23.603 5.773 53.564-10.782 113.489l-17.562 63.559c-16.555 59.924-24.832 89.885-49.169 103.513s-55.228 5.6-117.009-10.457l-65.532-17.030c-61.786-16.056-92.676-24.085-106.728-47.689-14.051-23.604-5.773-53.566 10.784-113.489zM180.139 678.504c3.78 13.624 17.888 21.604 31.512 17.824l58.153-16.134c31.296-8.684 56.064-32.81 64.704-64.084l73.422-265.766 5.403-18.654c21.611-8.064 40.171-23.181 51.956-43.255l10.577 3.268 302.767 78.682c13.687 3.558 27.661-4.655 31.219-18.338 3.554-13.683-4.655-27.661-18.338-31.215l-301.649-78.391-11.217-3.465c-0.23-43.383-30.161-83.004-75.452-94.771-54.288-14.11-110.089 17.139-124.636 69.79-14.546 52.655 17.67 106.778 71.959 120.883 2.69 0.7 5.384 1.289 8.077 1.766l-73.439 265.832c-3.695 13.377-14.514 24.351-29.041 28.382l-58.153 16.134c-13.624 3.78-21.604 17.888-17.824 31.512z" />
<glyph unicode="&#xe93a;" d="M853.333 448c0-188.512-152.822-341.333-341.333-341.333-188.513 0-341.333 152.822-341.333 341.333 0 188.513 152.82 341.333 341.333 341.333s341.333-152.82 341.333-341.333z" />
<glyph unicode="&#xe93b;" d="M649.568 551.434c9.998-9.998 9.998-26.204 0-36.202l-170.667-170.667c-9.998-9.998-26.204-9.998-36.202 0l-68.267 68.267c-9.998 9.998-9.998 26.204 0 36.202s26.204 9.998 36.202 0l50.166-50.162 152.566 152.562c9.998 9.998 26.204 9.998 36.202 0z" />
<glyph unicode="&#xe93c;" d="M853.333 448c0-188.512-152.822-341.333-341.333-341.333-188.513 0-341.333 152.822-341.333 341.333 0 188.513 152.82 341.333 341.333 341.333s341.333-152.82 341.333-341.333z" />
<glyph unicode="&#xe93d;" d="M512 251.733c14.138 0 25.6 11.462 25.6 25.6v204.8c0 14.138-11.462 25.6-25.6 25.6s-25.6-11.462-25.6-25.6v-204.8c0-14.138 11.462-25.6 25.6-25.6z" />
<glyph unicode="&#xe93e;" d="M512 618.667c18.852 0 34.133-15.281 34.133-34.133s-15.281-34.133-34.133-34.133c-18.852 0-34.133 15.281-34.133 34.133s15.281 34.133 34.133 34.133z" />
<glyph unicode="&#xe93f;" d="M204.8 516.267c0 128.725 0 193.087 39.99 233.077s104.353 39.99 233.077 39.99h68.267c128.724 0 193.089 0 233.076-39.99 39.991-39.99 39.991-104.352 39.991-233.077v-136.533c0-128.724 0-193.089-39.991-233.076-39.987-39.991-104.352-39.991-233.076-39.991h-68.267c-128.724 0-193.087 0-233.077 39.991-39.99 39.987-39.99 104.352-39.99 233.076v136.533z" />
<glyph unicode="&#xe940;" d="M349.867 448c0 14.138 11.462 25.6 25.6 25.6h273.067c14.138 0 25.6-11.462 25.6-25.6s-11.462-25.6-25.6-25.6h-273.067c-14.138 0-25.6 11.462-25.6 25.6z" />
<glyph unicode="&#xe941;" d="M349.867 584.533c0 14.138 11.462 25.6 25.6 25.6h273.067c14.138 0 25.6-11.462 25.6-25.6s-11.462-25.6-25.6-25.6h-273.067c-14.138 0-25.6 11.462-25.6 25.6z" />
<glyph unicode="&#xe942;" d="M464.872 837.626l-107.13-217.214-239.691-34.945c-42.983-6.234-60.21-59.225-29.038-89.576l173.41-168.978-41.015-238.71c-7.383-43.146 38.062-75.464 76.124-55.286l214.425 112.707 214.428-112.707c38.062-20.014 83.502 12.14 76.119 55.286l-41.011 238.71 173.409 168.978c31.171 30.351 13.947 83.342-29.041 89.576l-239.688 34.945-107.131 217.214c-19.195 38.718-74.811 39.21-94.171 0z" />
<glyph unicode="&#xe943;" d="M357.742 620.411l107.13 217.214c9.669 19.583 28.382 29.263 47.085 29.223v-721.226l-214.425-112.707c-38.062-20.178-83.506 12.14-76.124 55.286l41.015 238.71-173.41 168.978c-31.172 30.351-13.945 83.342 29.038 89.576l239.691 34.945z" />
<glyph unicode="&#xe944;" glyph-name="star" d="M464.872 837.626l-107.13-217.214-239.691-34.945c-42.983-6.234-60.21-59.225-29.038-89.576l173.41-168.978-41.015-238.71c-7.383-43.146 38.062-75.464 76.124-55.286l214.425 112.707 214.428-112.707c38.062-20.014 83.502 12.14 76.119 55.286l-41.011 238.71 173.409 168.978c31.171 30.351 13.947 83.342-29.041 89.576l-239.688 34.945-107.131 217.214c-19.195 38.718-74.811 39.21-94.171 0z" />
<glyph unicode="&#xe945;" d="M349.867 311.467c0 14.138 11.462 25.6 25.6 25.6h170.667c14.138 0 25.6-11.462 25.6-25.6s-11.462-25.6-25.6-25.6h-170.667c-14.138 0-25.6 11.462-25.6 25.6z" />
<glyph unicode="&#xe946;" glyph-name="external-link" d="M463.739 903.473c0.2-23.563-18.74-42.827-42.303-43.027-77.836-0.66-134.449-3.201-178.004-11.733-42.363-8.298-69.197-21.692-89.707-42.201-24.084-24.084-38.52-57.072-46.217-114.323-7.863-58.479-7.953-135.565-7.953-244.070s0.090-185.589 7.953-244.070c7.697-57.247 22.133-90.237 46.217-114.324 24.085-24.081 57.072-38.519 114.323-46.217 58.479-7.862 135.565-7.953 244.070-7.953s185.589 0.091 244.070 7.953c57.247 7.697 90.237 22.135 114.324 46.217 20.508 20.508 33.9 47.343 42.2 89.708 8.528 43.554 11.071 100.17 11.73 178.005 0.199 23.563 19.467 42.501 43.031 42.301s42.502-19.466 42.303-43.029c-0.66-77.54-3.089-141.443-13.323-193.678-10.468-53.43-29.628-97.667-65.604-133.643-42.581-42.587-96.575-61.486-163.288-70.451-64.825-8.715-147.655-8.715-252.233-8.715h-6.418c-104.577 0-187.407 0-252.232 8.715-66.714 8.966-120.71 27.864-163.292 70.451-42.582 42.581-61.48 96.575-70.45 163.294-8.715 64.819-8.715 147.649-8.714 252.227v6.419c-0.001 104.575-0.002 187.406 8.714 252.231 8.969 66.714 27.868 120.71 70.45 163.292 35.976 35.976 80.213 55.138 133.643 65.604 52.239 10.233 116.142 12.663 193.683 13.321 23.563 0.2 42.827-18.74 43.027-42.303zM709.393 933.281c16.663 16.662 43.674 16.662 60.336 0l227.556-227.556c16.663-16.662 16.663-43.678 0-60.34l-227.556-227.556c-16.663-16.662-43.674-16.662-60.336 0s-16.663 43.678 0 60.34l154.715 154.719h-261.080c-65.092 0-104.212-30.509-119.231-45.026l-10.093-9.76c-0.183-0.177-0.312-0.303-0.396-0.385-0.082-0.085-0.207-0.213-0.385-0.396l-9.756-10.090c-14.516-15.019-45.028-54.141-45.028-119.232v-136.533c0-23.563-19.103-42.667-42.667-42.667s-42.667 19.103-42.667 42.667v136.533c0 94.194 44.752 153.444 69 178.532 0.001 0.001-0.001-0.001 0 0l1.644 1.701c5.577 5.771 8.892 9.201 9.517 9.826 0.612 0.612 3.926 3.816 9.501 9.203l2.024 1.956c0 0-0.001-0.001 0 0 25.089 24.251 84.342 69.003 178.537 69.003h261.080l-154.715 154.719c-16.663 16.662-16.663 43.677 0 60.34z" />
<glyph unicode="&#xe947;" glyph-name="instagram" d="M512 867.47c135.711 0 154.217 0 209.735 0 49.352 0 74.023-12.338 92.528-18.506 24.678-12.338 43.184-18.507 61.689-37.012s30.844-37.012 37.010-61.686c6.173-18.506 12.339-43.181 18.505-92.53 0-55.518 0-67.855 0-209.735s0-154.217 0-209.735c0-49.352-12.332-74.023-18.505-92.528-12.332-24.678-18.505-43.184-37.010-61.689s-37.010-30.844-61.689-37.010c-18.505-6.173-43.176-12.339-92.528-18.505-55.518 0-67.855 0-209.735 0s-154.217 0-209.735 0c-49.349 0-74.024 12.332-92.53 18.505-24.675 12.332-43.181 18.505-61.686 37.010s-30.844 37.010-37.012 61.689c-6.168 18.505-12.337 43.176-18.506 92.528 0 55.518 0 67.855 0 209.735s0 154.217 0 209.735c0 49.349 12.338 74.024 18.506 92.53 12.338 24.675 18.507 43.181 37.012 61.686s37.012 30.844 61.686 37.012c18.506 6.168 43.181 12.337 92.53 18.506 55.518 0 74.024 0 209.735 0zM512 960c-141.88 0-154.217 0-209.735 0s-92.53-12.337-123.374-24.675c-30.843-12.337-61.686-30.843-92.53-61.686s-43.18-55.518-61.686-92.53c-12.337-30.844-18.506-67.855-24.675-123.374 0-55.518 0-74.024 0-209.735 0-141.88 0-154.217 0-209.735s12.337-92.528 24.675-123.372c12.337-30.844 30.843-61.689 61.686-92.533s55.518-43.176 92.53-61.689c30.844-12.332 67.855-18.505 123.374-24.671 55.518 0 74.024 0 209.735 0s154.217 0 209.735 0c55.518 0 92.528 12.339 123.372 24.671 30.844 12.339 61.689 30.844 92.533 61.689s43.176 55.523 61.689 92.533c12.332 30.844 18.505 67.855 24.671 123.372 0 55.518 0 74.024 0 209.735s0 154.217 0 209.735c0 55.518-12.339 92.53-24.671 123.374-12.339 30.843-30.844 61.686-61.689 92.53s-55.523 43.18-92.533 61.686c-30.844 12.337-67.855 18.506-123.372 24.675-55.518 0-67.855 0-209.735 0zM512 713.253c-148.048 0-265.253-117.205-265.253-265.253s117.205-265.253 265.253-265.253c148.048 0 265.253 117.204 265.253 265.253s-117.204 265.253-265.253 265.253zM512 275.277c-92.53 0-172.723 74.024-172.723 172.723 0 92.53 74.024 172.723 172.723 172.723 92.53 0 172.723-74.024 172.723-172.723 0-92.53-80.193-172.723-172.723-172.723zM783.419 657.735c34.070 0 61.689 27.618 61.689 61.686s-27.619 61.687-61.689 61.687c-34.063 0-61.684-27.619-61.684-61.687s27.621-61.686 61.684-61.686z" />
<glyph unicode="&#xe948;" glyph-name="twitter" horiz-adv-x="1195" d="M1194.667 841.846c-44.8-23.631-89.6-31.508-141.867-39.384 52.267 31.508 89.6 78.769 104.533 141.784-44.8-31.508-97.067-47.262-156.8-63.015-44.8 47.262-112 78.769-179.2 78.769-156.8 0-276.267-157.538-238.933-315.077-201.6 7.877-380.8 110.277-507.733 267.816-67.2-118.154-29.867-267.816 74.667-346.584-37.333 0-74.667 15.753-112 31.508 0-118.154 82.133-228.431 194.133-259.939-37.333-7.877-74.667-15.753-112-7.877 29.867-102.4 119.467-181.169 231.467-181.169-89.6-70.896-224-110.277-350.933-94.525 112-70.895 238.933-118.153 373.333-118.153 455.467 0 709.333 401.723 694.4 771.938 52.267 31.508 97.067 78.769 126.933 133.908z" />
<glyph unicode="&#xe949;" glyph-name="telegram" d="M825.936 281.298l85.219 255.657c74.445 223.339 111.667 335.008 52.719 393.953-58.94 58.946-170.611 21.723-393.949-52.723l-255.657-85.219c-180.256-60.086-270.383-90.128-295.995-134.183-24.365-41.911-24.365-93.672 0-135.583 25.612-44.055 115.739-74.097 295.995-134.183 22.339-7.446 47.471-2.129 64.199 14.444l273.347 270.814c15.378 15.236 40.195 15.12 55.432-0.258s15.12-40.195-0.259-55.431l-268.932-266.441c-18.438-18.266-24.274-46.224-16.067-70.847 60.085-180.255 90.127-270.384 134.182-295.992 41.911-24.363 93.673-24.363 135.583 0 44.056 25.609 74.098 115.738 134.183 295.992z" />
<glyph unicode="&#xe94a;" glyph-name="youtube" horiz-adv-x="1434" d="M1397.76 804.571c-17.92 64-62.72 109.715-125.44 128-107.52 27.429-564.481 27.429-564.481 27.429s-447.998 0-564.478-27.429c-62.721-18.286-107.521-64-125.441-128-17.92-118.857-17.92-356.571-17.92-356.571s0-237.714 26.88-356.571c17.92-64 62.719-109.714 125.44-128 107.52-27.429 564.48-27.429 564.48-27.429s448 0 564.48 27.429c62.72 18.286 107.52 64 125.44 128 26.88 118.857 26.88 356.571 26.88 356.571s0 237.714-35.84 356.571zM573.439 228.571v438.858l376.322-219.429-376.322-219.429z" />
<glyph unicode="&#xe94b;" glyph-name="copy" d="M622.626 789.333h-132.919c-60.22 0-107.92 0.001-145.25-5.038-38.418-5.186-69.513-16.113-94.035-40.733s-35.405-55.841-40.57-94.413c-5.019-37.48-5.018-85.369-5.018-145.832v-199.253c0-51.477 31.401-95.59 76.021-114.086-2.297 31.044-2.295 74.603-2.293 110.839v170.995c-0.003 43.746-0.005 81.44 4.038 111.625 4.332 32.349 14.1 63.358 39.151 88.51s55.936 34.959 88.156 39.308c30.064 4.058 67.607 4.056 111.178 4.054h104.777c43.575 0.003 81.033 0.005 111.1-4.054-17.988 45.727-62.396 78.078-114.334 78.078zM327.713 468.561c0 93.055 0 139.582 28.793 168.491s75.131 28.908 167.816 28.908h98.304c92.681 0 139.021 0 167.817-28.908 28.791-28.908 28.791-75.436 28.791-168.491v-164.497c0-93.056 0-139.58-28.791-168.491-28.796-28.907-75.136-28.907-167.817-28.907h-98.304c-92.685 0-139.024 0-167.816 28.907-28.793 28.911-28.793 75.435-28.793 168.491v164.497z" />
<glyph unicode="&#xe94c;" d="M512 840.533c-216.79 0-392.533-175.743-392.533-392.533s175.743-392.533 392.533-392.533c216.789 0 392.533 175.744 392.533 392.533s-175.744 392.533-392.533 392.533zM51.2 448c0 254.492 206.307 460.8 460.8 460.8 254.494 0 460.8-206.307 460.8-460.8s-206.306-460.8-460.8-460.8c-254.492 0-460.8 206.306-460.8 460.8z" />
<glyph unicode="&#xe94d;" d="M361.371 598.627c12.497 12.497 32.758 12.497 45.255 0l105.374-105.375 105.37 105.374c12.497 12.497 32.759 12.497 45.257 0s12.497-32.758 0-45.255l-105.374-105.372 105.374-105.37c12.497-12.497 12.497-32.759 0-45.257s-32.759-12.497-45.257 0l-105.37 105.37-105.373-105.37c-12.497-12.497-32.758-12.497-45.255 0s-12.497 32.755 0 45.252l105.371 105.374-105.372 105.373c-12.497 12.497-12.497 32.758 0 45.255z" />
</font>
</defs>
</svg>
